<?xml version="1.0" standalone="no"?>
<!DOCTYPE svg PUBLIC "-//W3C//DTD SVG 1.1//EN" "http://www.w3.org/Graphics/SVG/1.1/DTD/svg11.dtd" >
<svg xmlns="http://www.w3.org/2000/svg">
<metadata>
Created by FontForge 20120731 at Tue Feb 24 11:41:15 2015
 By Dovy
</metadata>
<defs>
<font id="elusiveicons" horiz-adv-x="1200" >
  <font-face 
    font-family="elusiveicons"
    font-weight="500"
    font-stretch="normal"
    units-per-em="1200"
    panose-1="2 0 6 9 0 0 0 0 0 0"
    ascent="1075"
    descent="-125"
    bbox="-2 -125.75 1202 1075.75"
    underline-thickness="60"
    underline-position="-120"
    unicode-range="U+F101-F232"
  />
<missing-glyph 
d="M40 0v800h320v-800h-320zM80 40h240v720h-240v-720z" />
    <glyph glyph-name=".notdef" 
d="M40 0v800h320v-800h-320zM80 40h240v720h-240v-720z" />
    <glyph glyph-name=".null" horiz-adv-x="0" 
 />
    <glyph glyph-name="nonmarkingreturn" 
 />
    <glyph glyph-name="uniF101" unicode="&#xf101;" 
d="M600 1075q163 0 301 -80.5t218.5 -218.5t80.5 -301t-80.5 -301t-218.5 -218.5t-301 -80.5t-301 80.5t-218.5 218.5t-80.5 301t80.5 301t218.5 218.5t301 80.5zM264 811v-672h524h75h73v119h-73v65h73v119h-73v66h73v119h-73v65h73v119h-73h-75h-524zM563 694
q27 0 49.5 -13t35.5 -35.5t13 -48.5q0 -29 -15 -52t-39 -35l124 -75h2v-1v-104h-173h-166v104v1h1l125 75q-24 12 -39 35t-15 52q0 40 28.5 68.5t68.5 28.5z" />
    <glyph glyph-name="uniF102" unicode="&#xf102;" 
d="M0 1075h935h134h131v-212h-131v-117h131v-213h-131v-116h131v-213h-131v-117h131v-212h-131h-134h-935v1200zM535 865q-47 0 -87 -23t-63.5 -63t-23.5 -87q0 -50 26.5 -91.5t69.5 -63.5l-222 -133h-3v-1v-187h605v187v1h-3l-222 133q44 22 70 63.5t26 91.5
q0 72 -50.5 122.5t-122.5 50.5z" />
    <glyph glyph-name="uniF103" unicode="&#xf103;" 
d="M104 1075h159v-700h104v-254h-367v254h104v700zM521 1075h158v-452h105v-254h-368v254h105v452zM937 1075h159v-202h104v-254h-367v254h104v202zM886 823v-50h261v50h-261zM937 577h159v-702h-159v702zM470 573v-51h260v51h-260zM521 329h158v-454h-158v454zM53 325v-51
h261v51h-261zM104 79h159v-204h-159v204z" />
    <glyph glyph-name="uniF104" unicode="&#xf104;" 
d="M600 1075q163 0 301 -80.5t218.5 -218.5t80.5 -301t-80.5 -301t-218.5 -218.5t-301 -80.5t-301 80.5t-218.5 218.5t-80.5 301t80.5 301t218.5 218.5t301 80.5zM600 900q-115 0 -213 -57t-155 -155t-57 -213t57 -213t155 -155t213 -57v850z" />
    <glyph glyph-name="uniF105" unicode="&#xf105;" 
d="M605 595q-101 2 -170 72t-70 168q2 100 72.5 169.5t167.5 70.5q50 -2 94.5 -21.5t76.5 -51.5t50.5 -75.5t18.5 -91.5q-1 -66 -34 -121t-88 -87t-118 -32zM799 545q62 -1 112 -26.5t81 -68.5t48 -96t17 -110v-369h-167v324q-3 16 -12.5 23t-20.5 5q-7 -1 -12.5 -4.5
t-9.5 -9.5t-4 -14v-324h-465v324q-5 31 -30 29q-11 -1 -19.5 -9t-8.5 -20v-324h-165v369q-1 80 30.5 148t91.5 110.5t137 42.5h397z" />
    <glyph glyph-name="uniF106" unicode="&#xf106;" 
d="M291 976h618v-178h-618v178zM127 701h946v-178h-946v178zM234 427h732v-178h-732v178zM0 152h1200v-178h-1200v178z" />
    <glyph glyph-name="uniF107" unicode="&#xf107;" 
d="M0 976h1200v-178h-1200v178zM0 701h1200v-178h-1200v178zM0 427h1200v-178h-1200v178zM0 152h1200v-178h-1200v178z" />
    <glyph glyph-name="uniF108" unicode="&#xf108;" 
d="M619 976v-178h-619v178h619zM947 701v-178h-947v178h947zM731 427v-178h-731v178h731zM1200 152v-178h-1200v178h1200z" />
    <glyph glyph-name="uniF109" unicode="&#xf109;" 
d="M581 976h619v-178h-619v178zM253 701h947v-178h-947v178zM469 427h731v-178h-731v178zM0 152h1200v-178h-1200v178z" />
    <glyph glyph-name="uniF10A" unicode="&#xf10a;" 
d="M600 -125l-469 703h253v497h432v-497h253z" />
    <glyph glyph-name="uniF10B" unicode="&#xf10b;" 
d="M0 475l703 469v-253h497v-432h-497v-253z" />
    <glyph glyph-name="uniF10C" unicode="&#xf10c;" 
d="M1200 475l-703 -469v253h-497v432h497v253z" />
    <glyph glyph-name="uniF10D" unicode="&#xf10d;" 
d="M600 1075l469 -703h-253v-497h-432v497h-253z" />
    <glyph glyph-name="uniF10E" unicode="&#xf10e;" 
d="M710 1075h1q27 0 47 -25t22 -69l35 -654q10 35 34.5 70.5t56 64.5t69.5 51.5t74 33.5t69 8t54 -22q26 -19 28 -53.5t-15 -67t-43 -47.5q-52 -23 -91.5 -60t-62.5 -77.5t-45.5 -88t-40 -89.5t-47 -84t-67.5 -70q-28 -21 -82 -21h-434q-55 3 -87 44.5t-42 99.5l-142 793
q-4 34 10 54t35 21t42 -12.5t30 -37.5l65 -226q-20 -37 -15 -80q6 -39 41 -252q4 -40 27.5 -74t55 -50t68 -9t63.5 42q19 -20 45.5 -28.5t53.5 -3t50.5 20.5t39.5 43.5t17 64.5l8 698q3 29 14 50t25.5 31t31.5 11h2zM490 687q32 0 57.5 -19t29.5 -52l10 -304q0 -35 -9 -58.5
t-22.5 -33t-30.5 -9.5q-30 -1 -54.5 25t-26.5 64l-27 310q0 34 18.5 53.5t47.5 22.5q4 1 7 1zM292 618q26 1 47.5 -16.5t26.5 -48.5l26 -257q2 -26 -5.5 -47t-20.5 -32.5t-29 -15.5q-10 -2 -20.5 0.5t-19.5 8.5t-16.5 18t-12.5 28l-44 266q-5 40 11 64.5t43 30.5q7 1 14 1z
" />
    <glyph glyph-name="uniF10F" unicode="&#xf10f;" 
d="M490 1046h220v-444l422 137l68 -209l-422 -137l261 -359l-178 -130l-261 359l-261 -359l-178 130l261 359l-422 137l68 209l422 -137v444z" />
    <glyph glyph-name="uniF110" unicode="&#xf110;" 
d="M627 1075v-545l546 545v-1200l-546 545v-545l-600 600z" />
    <glyph glyph-name="uniF111" unicode="&#xf111;" 
d="M1024.5 899.5q115.5 -115.5 156 -270t0 -309t-156 -270t-270 -156t-309 0t-270 156t-156 270t0 309t156 270t270 156t309 0t270 -156zM861 842v0q-87 62 -192 78t-207.5 -16.5t-180 -110t-110 -180t-16.5 -207.5t78 -192zM967 736l-628 -628q87 -62 192 -78t207.5 16.5
t180 110t110 180t16.5 207.5t-78 192z" />
    <glyph glyph-name="uniF112" unicode="&#xf112;" 
d="M0 975h100v-1000h-100v1000zM186 975h24v-1000h-24v1000zM244 975h76v-1000h-76v1000zM398 975h32v-1000h-32v1000zM516 975h24v-1000h-24v1000zM551 975h99v-1000h-99v1000zM710 975h50v-1000h-50v1000zM859 975h11v-1000h-11v1000zM947 975h33v-1000h-33v1000z
M1066 975h24v-1000h-24v1000zM1100 975h100v-1000h-100v1000z" />
    <glyph glyph-name="uniF113" unicode="&#xf113;" 
d="M0 1075h1200v-1200h-1200v1200zM186 579v-514h310q57 2 94 38q38 40 39 99q-1 58 -26 91q-23 28 -61 38v2q35 12 53 37q23 32 23 83q-1 55 -37 91q-38 35 -89 35h-306zM721 578v-84h227v84h-227zM830 469q-45 0 -82 -13q-36 -13 -62 -39q-26 -25 -40 -64t-14 -90
q0 -53 15 -92q14 -39 40.5 -64.5t64.5 -38.5q39 -12 86 -12q95 2 143 41q47 42 48 112h-129q0 -12 -4 -23q-11 -34 -61 -34q-37 0 -54 22q-16 22 -16 63h264q0 76 -14 118q-13 39 -38 64q-26 25 -63 37q-36 13 -84 13zM334 466h101q15 0 24 -11q10 -13 10 -28v-8
q0 -17 -10 -28q-10 -12 -24 -12h-101v87zM835 374q29 0 44 -18q16 -17 16 -48h-130q4 30 20 48q17 18 50 18zM334 273h112q15 -1 24 -12q10 -12 10 -28v-8q-1 -17 -10 -29q-11 -11 -24 -11h-112v88z" />
    <glyph glyph-name="uniF114" unicode="&#xf114;" 
d="M521 1075h158v-74q123 -27 204.5 -126.5t82.5 -229.5v-319l236 -205v-55h-236h-732h-236v55l236 205v319q1 130 82.5 229.5t204.5 126.5v74zM600 50q36 0 62 -25.5t26 -62t-26 -62t-62 -25.5t-62 25.5t-26 62t26 62t62 25.5z" />
    <glyph glyph-name="uniF115" unicode="&#xf115;" 
d="M385 1075q33 0 60.5 -16t43 -43.5t15.5 -59.5q0 -50 -34.5 -84.5t-84 -34.5t-84.5 34.5t-35 84t35 84.5t84 35zM286 775q23 37 69 42.5t80 -26.5l139 -176l136 -27q17 -3 29.5 -19.5t8.5 -35.5t-28 -27l438 -601q7 -12 -4.5 -18.5t-18.5 2.5l-470 619l-126 24
q-18 5 -27 17l-54 67v-57v-137l138 -158q7 -5 10 -21l66 -299q4 -21 -5.5 -38t-26 -24t-35 -7t-34 12t-20.5 34l-61 287l-113 127l-50 -177q-6 -17 -10 -22l-166 -214q-14 -16 -33.5 -21.5t-36 0.5t-29 18.5t-13 31.5t12.5 41l160 203l63 226l-2 185l-33 -45l-13 -131
q-5 -32 -29 -42t-45 5.5t-18 44.5l16 143q0 11 7 21z" />
    <glyph glyph-name="uniF116" unicode="&#xf116;" 
d="M0 1075h1200v-1200h-1200v1200zM642 855l-229 -1q-50 -7 -90 -28.5t-66.5 -59.5t-30.5 -87l-2 -352q0 -118 67.5 -175.5t197.5 -54.5l280 1q49 7 85.5 24.5t58.5 39t36 51.5t19.5 55.5t8.5 56.5v105q-2 37 -16 65t-36 42.5t-45.5 21.5t-50.5 8q12 42 3 111
q-6 73 -56 121.5t-134 55.5zM451 713h186q36 -5 56 -25.5t19.5 -44t-20.5 -44.5t-55 -27h-186q-37 5 -57 25.5t-19.5 44t20.5 44.5t56 27zM408 406l342 -1q25 -4 43 -15.5t26.5 -27.5t8.5 -34t-7.5 -34t-25 -28t-41.5 -16l-342 1q-38 5 -59 27.5t-21 49t20 49.5t56 29z" />
    <glyph glyph-name="uniF117" unicode="&#xf117;" 
d="M0 1075h698q215 0 323 -74t108 -223q0 -106 -75 -169q-74 -63 -221 -79q178 -17 272.5 -96.5t94.5 -211.5q0 -178 -132 -263q-132 -84 -414 -84h-654v97h151v1006h-151v97zM454 978v-404h103q136 0 202 50q65 51 65 154q0 105 -64 152q-63 48 -203 48h-103zM454 478v-506
h113q151 0 223.5 61t72.5 189q0 129 -73.5 192.5t-222.5 63.5h-113z" />
    <glyph glyph-name="uniF118" unicode="&#xf118;" 
d="M455 1064l578 -299v-724l-107 -58v724l-515 276q-36 13 -81 -10.5t-72 -57.5l579 -332v-650l-106 -58l-564 350v668q0 37 18 65q22 35 72.5 67t103.5 44.5t94 -5.5z" />
    <glyph glyph-name="uniF119" unicode="&#xf119;" 
d="M234 1075h732v-1087v-113l-366 366l-366 -366v113v1087zM309 1000v-938l291 291l291 -291v938h-582z" />
    <glyph glyph-name="uniF11A" unicode="&#xf11a;" 
d="M234 1075h732v-1087v-113l-366 366l-366 -366v113v1087z" />
    <glyph glyph-name="uniF11B" unicode="&#xf11b;" 
d="M50 1021h320v-91h-320v91zM50 30h320v-91h-320v91zM50 30v900h91v-900h-91zM830 1011h320v-91h-320v91zM830 20h320v-91h-320v91zM1150 921v-901h-91v901h91z" />
    <glyph glyph-name="uniF11C" unicode="&#xf11c;" 
d="M510 24q0 -62 -43.5 -105.5t-105.5 -43.5t-105.5 43.5t-43.5 105.5q0 40 20 74.5t54.5 54.5t74.5 20q62 0 105.5 -43.5t43.5 -105.5zM510 475q0 -30 -11.5 -58t-31.5 -47.5t-47.5 -31.5t-58.5 -12q-62 0 -105.5 43.5t-43.5 105.5t43.5 105.5t105.5 43.5q41 0 75 -20
t54 -54.5t20 -74.5zM510 926q0 -62 -43.5 -105.5t-105.5 -43.5t-105.5 43.5t-43.5 105.5t43.5 105.5t105.5 43.5t105.5 -43.5t43.5 -105.5zM988 24q0 -62 -43.5 -105.5t-105.5 -43.5t-105.5 43.5t-43.5 105.5t43.5 105.5t105.5 43.5t105.5 -43.5t43.5 -105.5zM988 475
q0 -62 -43.5 -105.5t-105.5 -43.5t-105.5 43.5t-43.5 105.5t43.5 105.5t105.5 43.5t105.5 -43.5t43.5 -105.5zM988 926q0 -62 -43.5 -105.5t-105.5 -43.5t-105.5 43.5t-43.5 105.5t43.5 105.5t105.5 43.5q40 0 74.5 -20t54.5 -54.5t20 -74.5z" />
    <glyph glyph-name="uniF11D" unicode="&#xf11d;" 
d="M318 1001h564v-167h318v-487h-541v100h-118v-100h-541v487h318v167zM405 915v-81h390v81h-390zM0 253h541v-97h118v97h541v-304h-1200v304z" />
    <glyph glyph-name="uniF11E" unicode="&#xf11e;" 
d="M1094 1075l106 -106l-410 -410q13 -22 10 -48t-22 -45q-33 -33 -78 -19q49 -101 6 -191q-80 -107 -133 -200.5t-74 -180.5q-52 26 -115 68q-10 61 6.5 115t57.5 92q-54 -20 -90.5 -58.5t-50.5 -90.5q-43 31 -108 98q19 25 26.5 35.5t13.5 20t4.5 10t-7.5 -0.5t-15 -6
t-25 -11.5t-31 -11.5q-35 40 -63 77q36 13 64 33t48.5 47.5t31.5 60.5q-84 -85 -196 -67q-31 48 -50 88q58 5 113.5 30.5t92.5 55t86.5 66t88.5 55.5q98 42 191 -6q-14 45 19 78q19 19 45 22t48 -10z" />
    <glyph glyph-name="uniF11F" unicode="&#xf11f;" 
d="M1158 1075l42 -1q-46 -64 -99.5 -149t-94.5 -155t-97 -156t-112 -160t-134.5 -157.5t-167.5 -157.5l-131 137q16 59 99.5 162t192 209.5t218 204t189.5 160t95 63.5zM323 234l131 -137q-18 -41 -39.5 -73.5t-50 -62t-64 -48t-79.5 -29.5t-100 -9t-121 17q48 17 79.5 40.5
t46.5 49t25 53l20 55t25.5 53.5t47 50t79.5 41z" />
    <glyph glyph-name="uniF120" unicode="&#xf120;" 
d="M600 955q119 0 203 -63t84 -152l-163 -495h-248l-163 495q0 89 84 152t203 63zM600 908q-56 0 -104 -19t-76.5 -46.5t-44 -55t-15.5 -47.5l116 -345h248l116 345q0 17 -15.5 43.5t-44 55.5t-76.5 49t-104 20zM472 209v0h256v-86h-256v86zM472 81h256v-86h-256v86z" />
    <glyph glyph-name="uniF121" unicode="&#xf121;" 
d="M1030 978v0q28 -1 51 -15.5t36 -37t14 -48.5v-240q24 -8 41 -26.5t23.5 -42t3.5 -47t-21 -44t-47 -31.5v-241q-2 -42 -32 -70.5t-69 -29.5q-75 68 -161.5 121t-184 88.5t-194.5 46.5q-41 -18 -57 -61.5t-8.5 -92.5t32.5 -97t60 -76q-21 -36 -68 -52t-96 -8t-78 36
q-19 54 -29.5 90.5t-20 85t-8 93.5t14.5 87h-131q-43 2 -71.5 32.5t-29.5 69.5v147q2 43 32 72.5t69 29.5h326q167 10 327.5 78.5t275.5 182.5zM1033 848q-245 -182 -505 -221v-171q289 -54 505 -221v613z" />
    <glyph glyph-name="uniF122" unicode="&#xf122;" 
d="M600 1075q163 0 301 -80.5t218.5 -218.5t80.5 -301t-80.5 -301t-218.5 -218.5t-301 -80.5t-301 80.5t-218.5 218.5t-80.5 301t80.5 301t218.5 218.5t301 80.5zM389 853v-118h63v118h-63zM748 853v-118h63v118h-63zM262 796v-166h676v166h-83v-106h-151v106h-208v-106
h-151v106h-83zM262 587v-490h676v490h-676zM528 474q26 -1 48 -13.5t31 -34.5q12 -34 2 -55q-11 -24 -47 -37q58 -15 59 -67q-1 -38 -30 -62q-29 -23 -63 -23q-94 0 -94 85h55q2 -42 35 -42q41 2 42 45q0 28 -19 36q-15 6 -51 6v43q63 -1 63 36q-2 40 -33 40q-37 -2 -38 -37
h-54q1 39 28 59t66 21zM717 468h49v-281h-53v226q-30 -26 -66 -36v48q42 16 70 43z" />
    <glyph glyph-name="uniF123" unicode="&#xf123;" 
d="M266 1075h99v-188h-99v188zM835 1075h99v-188h-99v188zM64 985h132v-169h239v169h330v-169h239v169h132v-264h-1072v264zM64 652h1072v-777h-1072v777zM485 473q-61 -1 -104 -33t-44 -93h86q0 26 15.5 41.5t43.5 17.5q50 -1 53 -64q-1 -59 -100 -57v-68q58 0 81 -10
q29 -12 29 -56q0 -69 -65 -73q-26 0 -40 18.5t-16 48.5h-87q0 -134 148 -134q55 0 100 37q46 37 48 97q-1 41 -25.5 68t-68.5 39q57 20 76 58q15 34 -3 87q-15 36 -49.5 55.5t-77.5 20.5zM786 464q-44 -43 -112 -69v-76q58 17 106 58v-358h83v445h-77z" />
    <glyph glyph-name="uniF124" unicode="&#xf124;" 
d="M391 927h435l37 -152h337v-752h-1200v752h353zM603 775q-92 0 -169.5 -45t-122.5 -122.5t-45 -169.5t45 -169.5t122.5 -123t169.5 -45.5t169.5 45.5t123 123t45.5 169.5t-45.5 169.5t-123 122.5t-169.5 45zM999 702v-99h170v99h-170zM603.5 676q98.5 0 168 -70
t69.5 -168.5t-69.5 -168t-168 -69.5t-168.5 69.5t-70 168t70 168.5t168.5 70z" />
    <glyph glyph-name="uniF125" unicode="&#xf125;" 
d="M215 974h770l76 -316h21h118v-92h-48v-590h-136v96h-832v-96h-136v590h-48v92h118h21zM255 913l-61 -255h812l-61 255h-690zM87 489v-91l191 -71v92zM1113 489l-191 -70v-92l191 71v91zM416 250v-91h368v91h-368z" />
    <glyph glyph-name="uniF126" unicode="&#xf126;" 
d="M0 950h1200l-600 -950z" />
    <glyph glyph-name="uniF127" unicode="&#xf127;" 
d="M1100 -125l-1000 600l1000 600v-1200z" />
    <glyph glyph-name="uniF128" unicode="&#xf128;" 
d="M100 1075l1000 -600l-1000 -600v1200z" />
    <glyph glyph-name="uniF129" unicode="&#xf129;" 
d="M0 -25l600 1000l600 -1000h-1200z" />
    <glyph glyph-name="uniF12A" unicode="&#xf12a;" 
d="M600 975l600 -117v-766l-600 -117l-600 117v766zM382 709q-97 0 -165.5 -68.5t-68.5 -165.5t68.5 -165.5t165.5 -68.5q69 0 125.5 36.5t85.5 96.5h-114q-40 -39 -97 -39q-58 0 -99 41t-41 99t41 99t99 41q57 0 97 -39h114q-29 60 -85.5 96.5t-125.5 36.5zM841 709
q-64 0 -117.5 -31.5t-85 -85t-31.5 -117.5t31.5 -117.5t85 -85t117.5 -31.5q69 0 125.5 36.5t85.5 96.5h-114q-40 -39 -97 -39q-58 0 -99 41t-41 99t41 99t99 41q57 0 97 -39h114q-19 39 -50.5 69t-73 47t-87.5 17z" />
    <glyph glyph-name="uniF12B" unicode="&#xf12b;" 
d="M978 8l-260 128l-137 -256l-117 265l-269 -108l80 279l-275 90l240 162l-152 246l288 -31l41 287l201 -209l216 193l19 -289l290 10l-171 -235l228 -179l-281 -69z" />
    <glyph glyph-name="uniF12C" unicode="&#xf12c;" 
d="M0 1075h1200v-1200h-1200v1200zM197 878v-806h806v806h-806z" />
    <glyph glyph-name="uniF12D" unicode="&#xf12d;" 
d="M0 1075h776l-197 -197h-382v-382v-424h424h382v382l197 197v-329v-447h-776h-424v424v776zM1030 1060l159 -159l-434 -434l-159 -160l-314 315l159 159l155 -155z" />
    <glyph glyph-name="uniF12E" unicode="&#xf12e;" 
d="M600 86l-179 178l-421 422l179 178l421 -421l421 421l179 -178l-421 -422z" />
    <glyph glyph-name="uniF12F" unicode="&#xf12f;" 
d="M211 475l178 179l422 421l178 -179l-421 -421l421 -421l-178 -179l-422 421z" />
    <glyph glyph-name="uniF130" unicode="&#xf130;" 
d="M989 475v0l-178 -179l-422 -421l-178 179l421 421l-421 421l178 179l422 -421z" />
    <glyph glyph-name="uniF131" unicode="&#xf131;" 
d="M600 864l179 -178l421 -422l-179 -178l-421 421l-421 -421l-179 178l421 422z" />
    <glyph glyph-name="uniF132" unicode="&#xf132;" 
d="M604.5 1075q101.5 0 173.5 -72t72 -174.5t-72 -174.5t-173.5 -72t-173 72t-71.5 174.5t71.5 174.5t173 72zM464 788q0 -58 41 -99t99 -41t99 41t41 99h-280zM412 543h377q57 1 98 -19t64 -54.5t33.5 -74.5t10.5 -87v-433h-142v389q-3 21 -17 27.5t-27 -2.5t-13 -25v-389
h-386v389q-3 16 -12 23.5t-19 6.5t-18.5 -9.5t-8.5 -20.5v-389h-147v433q-3 110 53 171.5t154 63.5z" />
    <glyph glyph-name="uniF133" unicode="&#xf133;" 
d="M1200 475q0 -163 -80.5 -301t-218.5 -218.5t-301 -80.5t-301 80.5t-218.5 218.5t-80.5 301t80.5 301t218.5 218.5t301 80.5t301 -80.5t218.5 -218.5t80.5 -301zM903 542h-163v321h-280v-321h-163l303 -455z" />
    <glyph glyph-name="uniF134" unicode="&#xf134;" 
d="M600 -125q-163 0 -301 80.5t-218.5 218.5t-80.5 301t80.5 301t218.5 218.5t301 80.5t301 -80.5t218.5 -218.5t80.5 -301t-80.5 -301t-218.5 -218.5t-301 -80.5zM667 172v163h321v280h-321v163l-455 -303z" />
    <glyph glyph-name="uniF135" unicode="&#xf135;" 
d="M600 1075q163 0 301 -80.5t218.5 -218.5t80.5 -301t-80.5 -301t-218.5 -218.5t-301 -80.5t-301 80.5t-218.5 218.5t-80.5 301t80.5 301t218.5 218.5t301 80.5zM533 778v-163h-321v-280h321v-163l455 303z" />
    <glyph glyph-name="uniF136" unicode="&#xf136;" 
d="M1200 475q0 -163 -80.5 -301t-218.5 -218.5t-301 -80.5t-301 80.5t-218.5 218.5t-80.5 301t80.5 301t218.5 218.5t301 80.5t301 -80.5t218.5 -218.5t80.5 -301zM903 408l-303 455l-303 -455h163v-321h280v321h163z" />
    <glyph glyph-name="uniF137" unicode="&#xf137;" 
d="M600 1075q163 0 301 -80.5t218.5 -218.5t80.5 -301t-80.5 -301t-218.5 -218.5t-301 -80.5t-301 80.5t-218.5 218.5t-80.5 301t80.5 301t218.5 218.5t301 80.5zM605 763q-114 -2 -187 -121q-49 12 -94.5 -3t-75 -50.5t-46 -81t-11 -99.5t33.5 -100h738q36 31 43.5 76
t-8.5 83.5t-53 64t-83 20.5q-24 91 -98 152t-159 59z" />
    <glyph glyph-name="uniF138" unicode="&#xf138;" 
d="M984 500q45 4 86 -12t68.5 -45t44 -68.5t17.5 -80t-16 -81.5t-51 -72h-1083q-26 43 -38.5 91.5t-11.5 94t12 90t33 81.5t51.5 68t67 48t80 23.5t90.5 -5.5q32 53 72 91t82 57t86.5 26t88 -1t85 -25.5t79 -46.5t68 -64.5t53.5 -79t36 -89.5z" />
    <glyph glyph-name="uniF139" unicode="&#xf139;" 
d="M600 1075q163 0 301 -80.5t218.5 -218.5t80.5 -301t-80.5 -301t-218.5 -218.5t-301 -80.5t-301 80.5t-218.5 218.5t-80.5 301t80.5 301t218.5 218.5t301 80.5zM543 841l-11 -111q-34 -9 -64 -26l-86 70l-81 -81l70 -86q-17 -30 -26 -64l-111 -11v-114l111 -11
q9 -34 26 -64l-70 -86l81 -81l86 70q30 -17 64 -26l11 -111h114l11 111q34 9 64 26l86 -70l81 81l-70 86q17 30 26 64l111 11v114l-111 11q-9 34 -26 64l70 86l-81 81l-86 -70q-30 17 -64 26l-11 111h-114zM600 581q44 0 75 -31t31 -75t-31 -75t-75 -31t-75 31t-31 75t31 75
t75 31z" />
    <glyph glyph-name="uniF13A" unicode="&#xf13a;" 
d="M506 1075h188l18 -181q55 -15 105 -44l141 116l133 -133l-116 -141q29 -50 44 -105l181 -18v-188l-181 -18q-15 -56 -44 -105l116 -141l-133 -133l-141 116q-50 -29 -105 -44l-18 -181h-188l-18 181q-56 15 -105 44l-141 -116l-133 133l116 141q-29 49 -44 105l-181 18
v188l181 18q15 55 44 105l-116 141l133 133l141 -116q49 29 105 44zM600 648q-72 0 -122.5 -50.5t-50.5 -122.5t50.5 -122.5t122.5 -50.5t122.5 50.5t50.5 122.5t-50.5 122.5t-122.5 50.5z" />
    <glyph glyph-name="uniF13B" unicode="&#xf13b;" 
d="M910 984l85 -9v-83q24 -9 45 -24l69 45l54 -66l-59 -59q11 -23 15 -49l81 -17l-9 -85h-83q-9 -24 -24 -45l45 -70l-66 -53l-59 59q-23 -11 -49 -15l-17 -81l-85 9v83q-24 9 -45 24l-69 -45l-54 66l59 58q-11 24 -15 50l-81 17l9 85l83 -1q9 25 24 46l-45 69l66 54l59 -59
q23 11 49 15zM924 787q-30 0 -52.5 -20.5t-26.5 -50.5q-3 -32 17.5 -57.5t53 -29t58 17t28.5 53.5q3 21 -5.5 40t-25.5 31.5t-39 14.5q-3 1 -8 1zM315 780h117l11 -113q35 -9 66 -27l88 72l82 -83l-72 -88q18 -30 27 -65l113 -11v-117l-113 -12q-9 -34 -27 -65l72 -88
l-82 -82l-88 71q-31 -17 -66 -27l-11 -112h-117l-11 112q-35 9 -66 27l-87 -71l-83 82l72 88q-18 31 -27 65l-113 12v117l113 11q9 35 27 65l-72 88l83 83l87 -72q31 18 66 27zM373.5 514q-44.5 0 -76 -31.5t-31.5 -76.5t31.5 -76.5t76 -31.5t76.5 31.5t32 76.5t-32 76.5
t-76.5 31.5zM869 370l60 -7v-60q17 -7 32 -18l48 33l38 -48l-41 -43q7 -17 10 -36l57 -13l-6 -62h-58q-7 -18 -18 -33l32 -51l-46 -39l-41 43q-17 -8 -35 -11l-12 -59l-60 7v60q-17 7 -32 18l-48 -33l-38 49l41 42q-7 18 -10 37l-57 12l6 62h58q7 18 18 33l-32 51l46 39
l42 -43q16 8 34 11zM879 226q-21 0 -37 -15t-18 -37q-3 -24 11.5 -42.5t37.5 -21t41 12.5t20.5 39t-12 42.5t-37.5 21.5h-6z" />
    <glyph glyph-name="uniF13C" unicode="&#xf13c;" 
d="M0 1014h1024v-729h-484l-329 -211v211h-211v729zM1072 854h82h46v-46v-612v-45h-46h-131v-132v-83l-71 45l-264 170h-271l143 91h141h14l11 -7l205 -132v93v46h46h131v520h-36v92z" />
    <glyph glyph-name="uniF13D" unicode="&#xf13d;" 
d="M0 1026h1200v-855h-567l-386 -247v247h-247v855z" />
    <glyph glyph-name="uniF13E" unicode="&#xf13e;" 
d="M175.5 50.5q-115.5 115.5 -156 270t0 309t156 270t270 156t309 0t270 -156t156 -270t0 -309t-156 -270t-270 -156t-309 0t-270 156zM271 116l427 261l261 427l-30 30l-426 -262l-262 -426z" />
    <glyph glyph-name="uniF13F" unicode="&#xf13f;" 
d="M175.5 50.5q-115.5 115.5 -156 270t0 309t156 270t270 156t309 0t270 -156t156 -270t0 -309t-156 -270t-270 -156t-309 0t-270 156zM234.5 109.5q74.5 -74.5 171 -113.5t194.5 -39t194.5 39t171.5 113q99 100 134.5 233t0 266t-135 232.5t-232.5 135t-266 0t-233 -134.5
q-74 -75 -113 -171.5t-39 -194.5t39 -194.5t113.5 -171zM293 141l-27 27l243 398l398 243l27 -27l-243 -398z" />
    <glyph glyph-name="uniF140" unicode="&#xf140;" 
d="M-2 872h1204v-249h-1204v249zM-2 509h1204v-431h-1204v431zM130 319v-137h453v137h-453z" />
    <glyph glyph-name="uniF141" unicode="&#xf141;" 
d="M0 1051h1200v-927l-600 -225l-600 225v927zM287 683q-67 0 -112 -41.5t-45 -114.5q1 -68 42 -113t115 -44q32 0 57.5 7t45.5 22t31 40t12 59h-90q0 -53 -57 -56q-27 1 -42 21t-14 49q0 4 -0.5 14.5t0 14t1 12.5t2 14t4 11.5t6.5 12.5q11 14 30.5 18t36.5 -2
q30 -13 30 -54h93q0 63 -39.5 96t-106.5 34zM612 683q-25 0 -47 -4.5t-42.5 -14.5t-32.5 -30t-14 -48q1 -69 90 -91q3 -1 20.5 -4t30.5 -6.5t25 -10t13 -14.5q0 -21 -43 -21q-22 0 -35.5 8.5t-12.5 30.5h-92q0 -32 11.5 -54t33.5 -33.5t47 -16t57 -4.5q27 0 49.5 5.5t42 17
t30.5 33t12 50.5q-1 34 -26.5 55.5t-64.5 30.5q-4 0 -16 2.5t-23 4.5t-22.5 5.5t-18.5 9.5t-8 13q0 19 40 20q16 0 27.5 -7.5t11.5 -23.5v-1h91v5q-1 47 -41 70.5t-93 22.5zM930 683q-20 0 -38 -2.5t-35.5 -9t-30.5 -17.5t-21.5 -28t-9.5 -40q0 -69 89 -91q3 -1 21 -4
t30.5 -6t24.5 -10t13 -15q0 -25 -63 -19q-29 5 -28 37h-92q0 -32 11.5 -54t33.5 -33.5t47 -16t57 -4.5q57 0 95 25t39 81q-1 21 -9 35q-19 35 -82 50q-3 1 -21 4.5t-30 6.5t-24 9.5t-13 15.5q0 19 40 20q16 0 28 -8t11 -24h91q0 50 -38.5 74t-95.5 24z" />
    <glyph glyph-name="uniF142" unicode="&#xf142;" 
d="M600 880q122 0 233 -47.5t191.5 -128t128 -191.5t47.5 -233q0 -109 -38 -210h-164q52 98 52 210q0 91 -35.5 174.5t-96 143.5t-143.5 96t-175 36t-175 -36t-143.5 -96t-96 -143.5t-35.5 -174.5q0 -112 52 -210h-164q-38 101 -38 210q0 122 47.5 233t128 191.5t191.5 128
t233 47.5zM600 644q31 0 53 -22t22 -53t-22 -53t-53 -22t-53 22t-22 53t22 53t53 22zM375 571q31 0 53 -22t22 -53.5t-22 -53t-53 -21.5q-20 0 -37.5 10t-27.5 27t-10 38q0 31 22 53t53 22zM825 571q31 0 53 -22t22 -53.5t-22 -53t-53 -21.5t-53 21.5t-22 53t22 53.5t53 22z
M600 423l59 -294v-59h-118v59z" />
    <glyph glyph-name="uniF143" unicode="&#xf143;" 
d="M0 1075h600v-600h-600v600zM600 475h600v-600h-600v600z" />
    <glyph glyph-name="uniF144" unicode="&#xf144;" 
d="M436 549l3 -230h-242q12 46 28 81t43 67t69 52.5t99 29.5zM435 608q-102 -13 -180.5 -44.5t-124.5 -69.5t-76 -86.5t-41 -91.5t-13 -89v-3h575v502h-142zM569 720v-490h-563q2 45 13 87t40.5 89.5t75 84.5t122.5 67t176 44l2 -47q-59 -10 -102 -31.5t-70.5 -54.5t-44 -69
t-27.5 -84l-1 -3h255l-6 407h130zM636 231l2 270q70 4 121 -10v-174l260 -2l-1 3q-14 60 -41.5 105.5t-62 71.5t-76.5 44t-86 23t-90 8.5t-88 -0.5v50q95 1 176.5 -8t150.5 -29t123 -51.5t91.5 -73.5t57.5 -96.5t21 -119.5v-11h-558zM630 225h570v3v15q-2 131 -81 219
t-217 127.5t-331 36.5h-3v-62h3q42 4 88 1t89 -8t85 -22t76 -42.5t61 -69.5t41 -102l-246 2v172l-2 1q-54 16 -128 11l-3 -1zM636 231l2 270q70 4 121 -10v-174l260 -2l-1 3q-14 60 -41.5 105.5t-62 71.5t-76.5 44t-86 23t-90 8.5t-88 -0.5v50q95 1 176.5 -8t150.5 -29
t123 -51.5t91.5 -73.5t57.5 -96.5t21 -119.5v-11h-558zM630 225h570v3v15q-2 131 -81 219t-217 127.5t-331 36.5h-3v-62h3q42 4 88 1t89 -8t85 -22t76 -42.5t61 -69.5t41 -102l-246 2v172l-2 1q-54 16 -128 11l-3 -1z" />
    <glyph glyph-name="uniF145" unicode="&#xf145;" 
d="M1123 700h-75v-150h-77h-294h-76v150h-77v-229h77v-442h223v220h77v-220h145v442h2h75v229zM677 919v-293h294v293h-294zM1200 771v-377h-77v-440h-599v440h-224v-145h72v-76h76v-219h-373v219h77v-144h220v144h-220v76h72v145h-149v77h372v300h1h153v225h447v-225h152z
M372 771v72h75v-72h-75zM75 771v-300h-75v300h75zM152 771h-77v72h77v-72zM372 843h-220v76h220v-76z" />
    <glyph glyph-name="uniF146" unicode="&#xf146;" 
d="M0 37h1200v-162h-1200v162zM821 1075v-497h276l-497 -462l-497 462h276v497h442z" />
    <glyph glyph-name="uniF147" unicode="&#xf147;" 
d="M600 1075q163 0 301 -80.5t218.5 -218.5t80.5 -301t-80.5 -301t-218.5 -218.5t-301 -80.5t-301 80.5t-218.5 218.5t-80.5 301t80.5 301t218.5 218.5t301 80.5zM600 5q77 0 148.5 24t129 67.5t101 101t67.5 129t24 148.5q0 96 -37.5 182.5t-100.5 149.5t-149.5 100.5
t-182.5 37.5t-182.5 -37.5t-149.5 -100.5t-100.5 -149.5t-37.5 -182.5t37.5 -182.5t100.5 -149.5t149.5 -100.5t182.5 -37.5zM717 726v-267h147l-264 -248l-264 248h147v267h234z" />
    <glyph glyph-name="uniF148" unicode="&#xf148;" 
d="M600 1075q163 0 301 -80.5t218.5 -218.5t80.5 -301t-80.5 -301t-218.5 -218.5t-301 -80.5t-301 80.5t-218.5 218.5t-80.5 301t80.5 301t218.5 218.5t301 80.5zM600 988q-62 0 -121 -14q106 -144 193 -301q182 71 269 186q-70 61 -157.5 95t-183.5 34zM382 939
q-109 -51 -184.5 -146t-100.5 -214q237 1 476 63q-17 30 -35 59.5t-40.5 63.5t-35.5 54.5t-41.5 63t-38.5 56.5zM998 799q-53 -64 -129 -117t-158 -86q5 -12 14.5 -32t17 -36.5t13.5 -31.5q178 18 357 -18q-1 181 -115 321zM614 562q-250 -71 -527 -72v-15
q0 -97 34.5 -185.5t97.5 -157.5q33 61 82 114.5t110 95.5t117.5 72.5t127.5 61.5q-6 13 -13.5 28.5l-15 31t-13.5 26.5zM1111 432v-6v6zM885 422q-52 0 -99 -7q22 -56 41.5 -124.5t30 -113t28.5 -128.5q88 59 146 149t75 196q-110 29 -222 28zM1109 413q0 -6 -1 -9q1 3 1 9z
M691 392q-127 -43 -231.5 -126t-174.5 -196q139 -108 315 -108q105 0 200 41q-39 208 -109 389z" />
    <glyph glyph-name="uniF149" unicode="&#xf149;" 
d="M0 1075h776l-197 -197h-382v-382v-424h424h382v382l197 197v-776h-776h-424v424v776zM1050 1075l150 -150l-77 -77l-150 150zM937 962l150 -150l-440 -440l-150 150zM442 453q49 0 88 -37q47 -45 47 -106h-142v142q5 1 7 1z" />
    <glyph glyph-name="uniF14A" unicode="&#xf14a;" 
d="M600 1010l600 -647h-1200zM0 249h1200v-309h-1200v309z" />
    <glyph glyph-name="uniF14B" unicode="&#xf14b;" 
d="M600 1075q163 0 301 -80.5t218.5 -218.5t80.5 -301t-80.5 -301t-218.5 -218.5t-301 -80.5t-301 80.5t-218.5 218.5t-80.5 301t80.5 301t218.5 218.5t301 80.5zM293 707v-86l307 -175l307 175v86h-614zM293 566v-254l156 164zM907 566l-156 -90l156 -164v254zM492 452
l-199 -209h614l-199 209l-108 -62z" />
    <glyph glyph-name="uniF14C" unicode="&#xf14c;" 
d="M0 929h1200v-169l-600 -342l-600 342v169zM0 652l306 -174l-306 -321v495zM1200 652v-495l-306 321zM390 430l210 -120l210 120l390 -409h-1200z" />
    <glyph glyph-name="uniF14D" unicode="&#xf14d;" 
d="M600 1075q163 0 301 -80.5t218.5 -218.5t80.5 -301t-80.5 -301t-218.5 -218.5t-301 -80.5t-301 80.5t-218.5 218.5t-80.5 301t80.5 301t218.5 218.5t301 80.5zM197 636v-322h806v322h-806z" />
    <glyph glyph-name="uniF14E" unicode="&#xf14e;" 
d="M600 1075q163 0 301 -80.5t218.5 -218.5t80.5 -301t-80.5 -301t-218.5 -218.5t-301 -80.5t-301 80.5t-218.5 218.5t-80.5 301t80.5 301t218.5 218.5t301 80.5zM600 911q-71 0 -137.5 -22t-120 -62.5t-94 -94t-62.5 -120t-22 -137.5t22 -137.5t62.5 -120t94 -94t120 -62.5
t137.5 -22q89 0 169.5 34.5t139 93t93 139t34.5 169.5t-34.5 169.5t-93 139t-139 93t-169.5 34.5zM281 593h638v-236h-638v236z" />
    <glyph glyph-name="uniF14F" unicode="&#xf14f;" 
d="M755 876q-98 0 -162 -57q-63 -57 -82 -164h324v-142h-336l-1 -28v-38l1 -26h285v-143h-271q41 -196 258 -196q115 0 221 46v-206q-93 -47 -236 -47q-197 0 -324 107t-160 296h-110v143h95q-3 18 -3 50l2 42h-94v142h107q30 194 160 307t326 113q151 0 283 -66l-79 -186
q-56 25 -104 38q-48 15 -100 15v0z" />
    <glyph glyph-name="uniF150" unicode="&#xf150;" 
d="M600 1075q163 0 301 -80.5t218.5 -218.5t80.5 -301t-80.5 -301t-218.5 -218.5t-301 -80.5t-301 80.5t-218.5 218.5t-80.5 301t80.5 301t218.5 218.5t301 80.5zM382 957l94 -661h248l94 661h-436zM602.5 251q-53.5 0 -91.5 -37.5t-38 -91.5q0 -35 17.5 -64.5t47 -47
t64.5 -17.5q54 0 91.5 38t37.5 91.5t-37.5 91t-91 37.5z" />
    <glyph glyph-name="uniF151" unicode="&#xf151;" 
d="M670 801l108 184l98 -60l-552 -960l-102 60l75 131l-8 4q-125 64 -212 154q-76 87 -77 132q7 58 77 132q95 96 212 154q153 73 311 74q35 -1 70 -5zM903 736q1 -1 2.5 -1.5l3 -1t2.5 -1.5q125 -63 212 -154q76 -87 77 -132q-7 -57 -77 -132q-95 -96 -212 -154
q-154 -73 -311 -73q-31 0 -70 4l50 86q17 -1 20 -1q117 0 200 79t83 191q0 89 -55 160zM600 717q-117 0 -200 -79.5t-83 -191.5q0 -89 55 -160l58 101q-10 29 -10 59q0 62 40.5 109.5t101.5 59.5l58 101q-10 1 -20 1zM769 504q11 -29 11 -58q0 -61 -40.5 -108.5
t-101.5 -59.5z" />
    <glyph glyph-name="uniF152" unicode="&#xf152;" 
d="M780 475.5q0 -71.5 -53 -122.5t-127.5 -51t-127 51t-52.5 122.5t52.5 122t127 50.5t127.5 -50.5t53 -122zM600 834q164 -2 311 -73q125 -64 212 -154q76 -87 77 -132q-7 -58 -77 -132q-95 -96 -212 -154q-154 -73 -311 -73q-164 2 -311 73q-125 64 -212 154
q-76 87 -77 132q7 58 77 132q95 96 212 154q153 73 311 73zM600 745q-117 0 -200 -79t-83 -191t83 -191t200 -79t200 79t83 191t-83 191t-200 79z" />
    <glyph glyph-name="uniF153" unicode="&#xf153;" 
d="M0 1075h1200v-1200h-1200v1200zM863 918q-39 0 -69 -12q-118 -46 -118 -185v-131h-111v-152h111v-423h158v423h156l7 152h-163v112q1 26 7 40.5t19.5 21t36.5 5.5h96l4 142q-71 7 -107 7q-14 1 -27 0z" />
    <glyph glyph-name="uniF154" unicode="&#xf154;" 
d="M0 940h930v-391l270 391v-930l-270 391v-391h-930v930z" />
    <glyph glyph-name="uniF155" unicode="&#xf155;" 
d="M0 -125v1200h200v-550l500 500v-500l500 500v-1100l-500 500v-500l-500 500v-550h-200z" />
    <glyph glyph-name="uniF156" unicode="&#xf156;" 
d="M1200 1075v-1200h-200v550l-500 -500v500l-500 -500v1100l500 -500v500l500 -500v550h200z" />
    <glyph glyph-name="uniF157" unicode="&#xf157;" 
d="M600 1075q105 0 193.5 -51.5t140 -140.5t51.5 -193q0 -93 -40.5 -173.5t-111.5 -134.5t-160 -71v-124h166v-147h-166v-165h-146v165h-166v147h166v124q-135 26 -223.5 132.5t-88.5 246.5q0 104 51.5 193t140 140.5t193.5 51.5zM600 922q-96 0 -164 -68t-68 -164
q0 -64 31 -117.5t84.5 -84.5t116.5 -31t116.5 31t84.5 84.5t31 117.5q0 96 -68 164t-164 68z" />
    <glyph glyph-name="uniF158" unicode="&#xf158;" 
d="M600 1075q163 0 301 -80.5t218.5 -218.5t80.5 -301t-80.5 -301t-218.5 -218.5t-301 -80.5t-301 80.5t-218.5 218.5t-80.5 301t80.5 301t218.5 218.5t301 80.5zM497 786l-118 -113v-38h157v151h-39zM590 786v-203h-211v-419h442v622h-231z" />
    <glyph glyph-name="uniF159" unicode="&#xf159;" 
d="M600 1075q163 0 301 -80.5t218.5 -218.5t80.5 -301t-80.5 -301t-218.5 -218.5t-301 -80.5t-301 80.5t-218.5 218.5t-80.5 301t80.5 301t218.5 218.5t301 80.5zM457 854l-143 -138v-620h537v242l-66 -67v-109h-405v507h125v119h280v-172l-198 -198l-59 -182l181 59
l289 289l-122 123l-25 -25v172h-394zM618 387l61 -61l-91 -30z" />
    <glyph glyph-name="uniF15A" unicode="&#xf15a;" 
d="M285 1075h624v-272l39 39l194 -194l-458 -457l-287 -94l93 287l314 314v273h-443v-188h-198v-804h641v173l105 105v-382h-851v982zM539 336l-47 -144l144 47z" />
    <glyph glyph-name="uniF15B" unicode="&#xf15b;" 
d="M600 1075q163 0 301 -80.5t218.5 -218.5t80.5 -301t-80.5 -301t-218.5 -218.5t-301 -80.5t-301 80.5t-218.5 218.5t-80.5 301t80.5 301t218.5 218.5t301 80.5zM449 853l-132 -128v-575h354v61h-293v471h116v110h259v-183h62v244h-366zM726 555v-146h-146v-113h146v-146
h113v146h146v113h-146v146h-113z" />
    <glyph glyph-name="uniF15C" unicode="&#xf15c;" 
d="M256 1075h624v-417h-105v313h-443v-188h-197v-804h500v-104h-605v982zM728 566h193v-249h249v-193h-249v-249h-193v249h-249v193h249v249z" />
    <glyph glyph-name="uniF15D" unicode="&#xf15d;" 
d="M401 1075h76v-292h-302v74zM580 1075h445v-1200h-850v809h405v391z" />
    <glyph glyph-name="uniF15E" unicode="&#xf15e;" 
d="M71 1075h1058v-1200h-1058v1200zM125 1003v-99h130v99h-130zM945 1003v-99h130v99h-130zM311 996v-524h578v524h-578zM125 781v-99h130v99h-130zM945 781v-99h130v99h-130zM125 560v-99h130v99h-130zM945 560v-99h130v99h-130zM311 435v-523h578v523h-578zM125 338v-99
h130v99h-130zM945 338v-99h130v99h-130zM125 117v-99h130v99h-130zM945 117v-99h130v99h-130z" />
    <glyph glyph-name="uniF15F" unicode="&#xf15f;" 
d="M0 1075h1200l-416 -416v-483l-368 -301v784z" />
    <glyph glyph-name="uniF160" unicode="&#xf160;" 
d="M382 -125q-180 101 -241 206t-33 243q11 53 41.5 120.5t55.5 131t28 120.5q29 -53 42.5 -96t16.5 -97q93 114 148 263.5t58 308.5q13 -8 34.5 -22t77.5 -61.5t99.5 -98t82 -128.5t44.5 -157q22 47 27 104t-13 106q15 -12 39.5 -37t56.5 -66t62.5 -89.5t53.5 -109
t34.5 -122.5t1 -130.5t-42.5 -133.5t-101 -131.5t-169 -123.5q43 84 50.5 182.5t-17 190t-78.5 173.5t-129 134q3 -21 3.5 -54.5t-7 -80.5t-18.5 -92t-32 -90t-47 -73q11 83 5.5 136t-17.5 78l-11 25q-1 -4 -2.5 -11t-8 -28.5t-14.5 -42.5t-23.5 -51t-33.5 -56
q-26 -38 -40 -69t-22.5 -72.5t1.5 -91t38 -107.5z" />
    <glyph glyph-name="uniF161" unicode="&#xf161;" 
d="M600 1075q163 0 301 -80.5t218.5 -218.5t80.5 -301t-80.5 -301t-218.5 -218.5t-301 -80.5t-301 80.5t-218.5 218.5t-80.5 301t80.5 301t218.5 218.5t301 80.5zM410 814q-75 0 -149 -43v-635h90v310q55 16 102.5 11t94 -18.5t86.5 -33t80.5 -33.5t76.5 -20t74.5 7.5
t73.5 48.5v363q-60 -39 -118.5 -49t-109.5 3.5t-97 33t-101 37t-103 18.5z" />
    <glyph glyph-name="uniF162" unicode="&#xf162;" 
d="M0 999q76 44 150 62t138 13.5t127.5 -22t123.5 -42t120.5 -48t124 -39t127.5 -17t138.5 21t150.5 71.5v-643q-49 -49 -101 -74t-102.5 -27t-102.5 9.5t-107 33.5t-110 47t-117 47.5t-123.5 37t-134 14t-143.5 -19.5v-549h-159v1124z" />
    <glyph glyph-name="uniF163" unicode="&#xf163;" 
d="M0 1075h1200v-1200h-1200v1200zM355 701q-94 0 -160 -66t-66 -160q0 -61 30 -113.5t82 -82.5t113.5 -30t114 30t82.5 82.5t30 113.5q0 94 -66 160t-160 66zM845 701q-94 0 -160 -66t-66 -160t66 -160t160 -66t160 66t66 160t-66 160t-160 66z" />
    <glyph glyph-name="uniF164" unicode="&#xf164;" 
d="M249 957h259l84 -108h608v-144h-1200v144h165zM0 664h1200v-671h-1200v671z" />
    <glyph glyph-name="uniF165" unicode="&#xf165;" 
d="M249 957h259l84 -108h402v-144h-870l-124 -466v610h165zM0 58l175 606h1025l-206 -671h-994v65z" />
    <glyph glyph-name="uniF166" unicode="&#xf166;" 
d="M600 1075q163 0 301 -80.5t218.5 -218.5t80.5 -301t-80.5 -301t-218.5 -218.5t-301 -80.5t-301 80.5t-218.5 218.5t-80.5 301t80.5 301t218.5 218.5t301 80.5zM391 763l-50 -64h-99v-512h716v512h-363l-50 64h-154z" />
    <glyph glyph-name="uniF167" unicode="&#xf167;" 
d="M249 957h259l84 -108h608v-856h-1200v856h165z" />
    <glyph glyph-name="uniF168" unicode="&#xf168;" 
d="M335 312l218 564l217 -564h-435zM0 -118v84h104l423 1102h133l423 -1102h117v-84h-431v84h132l-100 261h-498l-100 -261h131v-84h-334v0z" />
    <glyph glyph-name="uniF169" unicode="&#xf169;" 
d="M1041 282q-18 29 -45 37q-68 22 -103 -16q-21 -27 -21.5 -63.5t21.5 -60.5q34 -29 80 -21t68 41v83zM1140 613q60 -55 60 -156v-389q0 -8 -6 -13.5t-13 -5.5h-121q-7 0 -13 6t-6 13v11q-58 -44 -133 -44q-79 2 -134 53q-61 61 -62 154q3 101 62 156q58 48 134 49
q80 0 133 -42v37q0 88 -92 88q-72 0 -130 -60q-8 -7 -17.5 -5t-13.5 10l-48 82q-6 13 4 23q44 43 101 66q49 17 102.5 20.5t105.5 -9.5t87 -44zM353 677l-85 -302h170zM705 82q2 -8 2 -10q0 -9 -5.5 -14t-13.5 -5h-1h-150q-14 0 -18 14l-42 148h-247l-42 -148
q-4 -14 -20 -14h-148q-24 2 -19 24l251 824q5 14 19 14h165q14 0 19 -14z" />
    <glyph glyph-name="uniF16A" unicode="&#xf16a;" 
d="M42 139h186v172q0 88 78 165q57 56 249 191q37 26 83 57.5t69.5 48t46.5 33t35 27.5q25 22 28 29t3 40v171v2h148v-2v-171q0 -50 -21 -97t-60 -82q-23 -21 -53.5 -43t-93 -64.5t-100.5 -69.5q-182 -127 -230 -175q-26 -25 -30 -33t-4 -27v-172h194l-264 -264zM630 139
h190v172q0 11 -0.5 14.5t-3.5 10.5t-9.5 14t-20.5 21q-33 32 -125 100q3 1 10 6.5t12 8.5q30 21 108 73q63 -48 99 -83q78 -77 78 -165v-172h190l-264 -264z" />
    <glyph glyph-name="uniF16B" unicode="&#xf16b;" 
d="M600 1075q163 0 301 -80.5t218.5 -218.5t80.5 -301t-80.5 -301t-218.5 -218.5t-301 -80.5t-301 80.5t-218.5 218.5t-80.5 301t80.5 301t218.5 218.5t301 80.5zM300 700v-450l300 225zM675 700v-450l300 225z" />
    <glyph glyph-name="uniF16C" unicode="&#xf16c;" 
d="M573 -125v545l-546 -545v1200l546 -545v545l600 -600z" />
    <glyph glyph-name="uniF16D" unicode="&#xf16d;" 
d="M0 1075h1010l-274 -376l-82 82q-20 17 -41.5 17t-39.5 -17l-20 -21q-5 8 -11 16q-5 8 -12 16q-77 84 -184 85q-90 -2 -157 -58q-75 -70 -84 -166q-5 -103 57 -175q72 -78 166 -84l245 -245q21 -17 42.5 -17t38.5 17l276 276q17 19 17 41t-16 38l269 227v-856h-1200v1200z
M1068 1075h132v-282l-580 -488q-4 -4 -10 -4h-4q-3 0 -7 4l-184 148h-2h-1q-32 -12 -67 -12q-80 0 -136.5 57t-56.5 137t56.5 137t137 57t137 -57t56.5 -137q0 -39 -15 -74v-2v-2q31 -42 49 -66q21 -26 23 -27q4 -7 13 -7t15 8z" />
    <glyph glyph-name="uniF16E" unicode="&#xf16e;" 
d="M0 1075h1200v-1200h-1200v1200zM809 910q-72 0 -132 -32q-96 35 -180 29q-122 -12 -179.5 -69.5t-65.5 -155.5q-13 -1 -21.5 -3t-18.5 -9t-16.5 -18t-11 -31t-4.5 -47q-1 -38 3.5 -64.5t15.5 -40.5t21 -20t27 -12l2 -314q1 -4 2 -16t2 -16.5t4 -14.5t8.5 -15t14 -11
t21.5 -9.5t31 -5.5l126 -3q70 -9 96 91q9 -84 74 -86h147q3 1 13 3.5t13 3.5t11.5 4t11.5 6t9 8.5t8.5 11.5t5 15.5t3.5 20.5l3 327l39 -2q15 2 24 4.5t21.5 8.5t22 18t17.5 31v98q-2 14 -6 22.5t-6.5 11t-8 5.5t-8.5 5h5q14 4 21.5 6.5t18 10.5t17.5 24t11 41l-3 80
q1 38 -22 60.5t-75 36.5q-81 12 -112 12zM516 833q38 1 107 -21l2 -95q-6 2 -18 6.5t-16.5 6t-16 4.5t-15 2.5t-13.5 0.5q-19 1 -32.5 -2.5t-21.5 -9t-12.5 -15.5t-6.5 -18t-3 -21v-67l169 -2q1 12 1 34v36t2.5 34t7 33.5t13.5 29.5t22.5 26t34.5 18t48 12q95 13 169 -19
l-2 -100q-27 21 -88 29q-26 4 -42 -2.5t-22 -20t-8.5 -31.5t-1 -37.5t-0.5 -38.5h122v-89h-122l1 -405l-135 4v401l-175 -4v-397h-135l4 397h-66l-2 101l72 -4l-2 27v14q1 20 2 31t4 31t8 32.5t15.5 29.5t24 27t35 19t48.5 12q10 -1 25 0t19 1z" />
    <glyph glyph-name="uniF16F" unicode="&#xf16f;" 
d="M886 1075q42 0 152 -16q72 -19 103 -50t30 -83l3 -109q-5 -34 -14 -56t-23.5 -33t-25 -14.5t-29.5 -8.5q-4 0 -6 -1q3 -2 8.5 -5t9 -5.5t8 -8t7.5 -15.5t6 -26v-134q-11 -25 -24.5 -41.5t-30.5 -25t-29 -11.5t-33 -6l-53 3l-3 -447q-1 -15 -5 -27.5t-7.5 -21t-11.5 -16
t-12.5 -11.5t-16 -8.5t-15.5 -5.5t-17.5 -4.5t-16.5 -4.5h-201q-90 2 -102 116q-35 -135 -131 -123l-172 4q-21 2 -38 6.5t-28 9.5t-19 13.5t-12.5 15t-7.5 18t-4 18t-2 20t-2 18.5l-4 430q-17 6 -28.5 12t-25 19t-21 31.5t-12.5 50.5t-4 74q0 27 3.5 48.5t8.5 36.5t13 26
t15 17.5t18 10.5t19.5 6t20.5 3q11 133 90 212t245 94q70 6 127 -5t120 -33q81 43 180 43zM486 970q-6 0 -26.5 -1.5t-33.5 -0.5q-29 -3 -53.5 -11.5t-42 -18t-32 -24.5t-23.5 -28t-16 -33t-10.5 -33t-5.5 -35l-3 -33t-1 -32q-1 -13 -1 -19l2 -37l-97 5l3 -137h89l-5 -543
h185v543l239 5v-548l184 -5l-2 553h167v122h-167q0 21 0.5 43t0.5 43.5t5.5 39.5t15 31t30 18.5t50.5 1.5q83 -11 119 -40l3 137q-101 43 -231 26q-37 -5 -65.5 -16.5t-46.5 -25.5t-30.5 -35t-18.5 -39.5t-9.5 -46t-3.5 -47v-49t-1 -46.5l-232 2v92q3 23 6.5 36t14 28
t31 21.5t53.5 4.5q4 2 15 0.5t16.5 -2.5t17 -4.5t18.5 -6t19.5 -7.5t20.5 -7l-3 129q-94 31 -145 30z" />
    <glyph glyph-name="uniF170" unicode="&#xf170;" 
d="M0 1075h410l-142 -144l332 -332l332 332l-146 144h414v-410l-144 142l-332 -332l332 -332l144 146v-414h-410l142 144l-332 332l-332 -332l146 -144h-414v410l144 -142l332 332l-332 332l-144 -146v414z" />
    <glyph glyph-name="uniF171" unicode="&#xf171;" 
d="M83 732v268h261v-268h-261zM469 732v268h262v-268h-262zM856 732v268h261v-268h-261zM83 341v268h261v-268h-261zM469 341v268h262v-268h-262zM856 341v268h261v-268h-261zM83 -50v268h261v-268h-261zM469 -50v268h262v-268h-262zM856 -50v268h261v-268h-261z" />
    <glyph glyph-name="uniF172" unicode="&#xf172;" 
d="M676 1075q158 0 316 -66l-76 -186q-127 51 -220 51q-63 0 -97 -36t-34 -103v-156h304v-177h-304v-116q0 -138 -122 -201h581v-210h-848v201q83 35 114 81q32 47 32 127v118h-144v177h144v158q0 162 92 250q93 88 262 88v0z" />
    <glyph glyph-name="uniF173" unicode="&#xf173;" 
d="M751 703h390v-301h-75v-527h-932v527h-75v301h428l-188 151l226 150l84 -254l146 325l226 -226zM774 976l-123 -271l242 153zM495 916l-101 -66l167 -134zM525 -50v476h-316v-476h316zM525 477v151h-391v-151h391zM991 -50v476h-316v-476h316zM1066 477v151h-391v-151
h391z" />
    <glyph glyph-name="uniF174" unicode="&#xf174;" 
d="M1024 777h114v-127q-7 0 -24.5 1.5t-33.5 1.5h-56v-245q0 -88 57 -88q41 0 74 23v-132q-49 -26 -117 -26q-96 0 -133 68q-27 51 -27 162v235h1v3l-20 1q-17 0 -44 -4v127h64v52q0 36 -4 59h152q-3 -25 -3 -57v-54zM603 194q3 26 3 89v409q0 62 -3 85h149q-3 -25 -3 -82
v-404q0 -67 3 -97h-149zM274 784q64 0 119 -32q63 0 146 32v-135q-18 -7 -53 -15q11 -30 11 -56q0 -84 -50.5 -146.5t-130.5 -74.5q-53 -8 -53 -56q0 -18 17 -35q23 -25 66 -31q188 -29 188 -156q0 -204 -243 -204q-100 0 -164 35q-82 45 -82 141q0 110 122 151v3
q-44 27 -44 84q0 73 42 92v2q-42 15 -75 66q-37 55 -37 118q0 95 67 158q64 59 154 59zM279 663q-83 0 -83 -97q0 -91 83 -91q80 0 80 92q0 38 -18 66q-23 30 -62 30zM288 128q-106 0 -106 -69q0 -68 115 -68q101 0 101 70q0 67 -110 67zM769 977q0 -26 -12 -49t-33 -36
t-46 -13t-46 13t-33 36t-12 49q0 41 26.5 69.5t64.5 28.5t64.5 -28.5t26.5 -69.5z" />
    <glyph glyph-name="uniF175" unicode="&#xf175;" 
d="M600 1075q163 0 301 -80.5t218.5 -218.5t80.5 -301t-80.5 -301t-218.5 -218.5t-301 -80.5t-301 80.5t-218.5 218.5t-80.5 301t80.5 301t218.5 218.5t301 80.5zM600 1010q-109 0 -208 -42.5t-170.5 -114t-114 -170.5t-42.5 -208t42.5 -208t114 -170.5t170.5 -114
t208 -42.5t208 42.5t170.5 114t114 170.5t42.5 208t-42.5 208t-114 170.5t-170.5 114t-208 42.5zM335 853q76 -4 135 -53q117 32 246 2q15 13 49 30.5t85 20.5q11 -27 14.5 -61.5t-4.5 -65.5q55 -56 58 -151q-1 -74 -27 -124t-91 -81q-46 -21 -117 -27q32 -16 47 -34t19 -55
q2 -22 2 -72.5t2 -72.5q5 -11 15.5 -19t17.5 -12t4 -10.5t-19 -7.5q-40 0 -63 29q-7 11 -7 27v112q0 20 -9 28t-19 11v-148q0 -40 10 -52q9 -12 12 -22q0 -4 -5.5 -5t-20.5 3q-29 7 -41 32t-12 52v145h-30v-145q0 -27 -12 -52q-7 -14 -25 -24t-37 -11q-5 1 -5 5t2.5 7.5
t5.5 8t5 6.5q2 5 5.5 19t3.5 33v148q-9 -3 -17.5 -11t-8.5 -28v-112q0 -16 -7 -27q-21 -28 -63 -29q-16 1 -19 7q-2 5 2 9t11 8t8 6q11 8 16 19q6 10 3 49.5t-1 52.5q-33 -11 -65 -4.5t-60 25.5q-19 17 -37 54q-14 26 -56 60q-5 4 0 8q8 10 22.5 8.5t16.5 -3.5
q16 -7 36.5 -32.5t30.5 -33.5q26 -21 57 -24t60 16q3 12 8 21t16 16.5t17.5 10.5t24.5 12q-76 5 -124 25t-76 51q-38 43 -46.5 111t11.5 124q14 35 39 63q-19 59 7 134z" />
    <glyph glyph-name="uniF176" unicode="&#xf176;" 
d="M0 1027h1200l-504 -503v-494h185v-107h-562v107h185v494z" />
    <glyph glyph-name="uniF177" unicode="&#xf177;" 
d="M1119 482h-387l50 -228h313zM466 482h-386l24 -228h312zM1189 549q13 -14 11 -31l-34 -307q-3 -16 -13.5 -26t-24.5 -10h-376q-32 2 -37 32l-61 267q-47 30 -110 3l-60 -270q-8 -32 -37 -32h-376q-16 1 -26 11t-11 25l-34 307q-2 18 9 31l433 222q16 7 29.5 1.5
t20.5 -19.5q6 -15 1.5 -31t-18.5 -22l-274 -124h793l-274 124q-15 8 -20 23.5t2 29.5q8 15 22.5 20t28.5 -2z" />
    <glyph glyph-name="uniF178" unicode="&#xf178;" 
d="M600 1075q163 0 301 -80.5t218.5 -218.5t80.5 -301t-80.5 -301t-218.5 -218.5t-301 -80.5t-301 80.5t-218.5 218.5t-80.5 301t80.5 301t218.5 218.5t301 80.5zM595 921q-73 0 -139 -21q32 -17 73.5 -31t82.5 -14q29 -1 61 20q33 22 91 10q10 -2 16 -3q-42 19 -88 29
t-97 10zM336 830q-7 0 -14 -1q-68 -52 -113 -125t-58 -161q24 -34 55 -52.5t79 -34.5t68 -25q6 -8 19 -18t17 -14q0 -6 -3 -18q-2 -25 2 -46.5t10 -33.5t19 -33.5t19 -33.5q3 -7 1 -16q-2 -20 -10.5 -78.5t-10.5 -90.5q49 -29 92 -31q5 9 9 21q5 10 11.5 25t16.5 33
q0 18 5.5 31t11.5 22q7 9 16 17q24 16 43 35.5t22 30.5q10 37 10 84q0 12 -9.5 21.5t-24.5 18.5q-21 9 -55 41.5t-52 39.5q-19 8 -39 9.5t-37 -1.5t-39 -1q-5 7 -9 8q-12 5 -4 12q5 11 -2.5 14t-17.5 1q-9 27 -11 44q17 -14 29.5 -20.5t20.5 -9.5q10 -3 16 -2q13 3 15 21.5
t-2 52.5q4 5 5 10q5 20 12.5 26.5t7.5 8.5q4 0 4 2q5 4 20 6l12 2q5 2 11 4q10 5 5 13q-1 0 -1 0.5t-2 0.5q21 11 44 48q-16 24 -45 39q-8 12 -23 7q-7 0 -17 7t-14 9q-6 2 -15 4q-17 11 -32 25.5t-24 31.5q-6 13 -22 17q-11 3 -22 3zM884 817q-43 -5 -90 -19t-62 -35
q-14 -23 -20 -38q-2 -10 -4.5 -22t-3.5 -16.5t-3.5 -12t-7 -14t-11.5 -16.5q-4 -5 -4 -13t7 -23q6 -11 6 -21q36 2 46 12l84 -8q16 18 33.5 17.5t32.5 -17.5q10 -9 21 -30l-34 -24q-23 14 -39 21t-34 8.5t-28 1t-36.5 -3.5t-42.5 -5q-2 -5 -5 -10q-3 -3 -7 -6.5t-10 -5.5
q-1 -3 -1 -12q0 -3 -1 -7q-24 -35 -17 -78q6 -31 24 -48q11 -9 23 -13t22 -3t24 1t25 -3q10 -3 11 -5q-6 -15 -4 -24q1 -6 8 -24t7 -28q-1 -6 -2 -15t-1.5 -15.5t-0.5 -14.5t1 -15t3 -14q6 -13 16 -39.5t16 -38.5q5 -12 16 -14q24 -4 57 30q24 28 28 60q2 12 10 26
q7 15 11 30q2 8 0 16q15 28 15 47q0 12 2 18q2 3 11.5 11.5t13.5 13.5q7 27 3 37q-1 3 -6 5l-20 7q6 12 17.5 19t23.5 4l38 12v8q0 106 -43 195t-118 151z" />
    <glyph glyph-name="uniF179" unicode="&#xf179;" 
d="M600 1075q163 0 301 -80.5t218.5 -218.5t80.5 -301t-80.5 -301t-218.5 -218.5t-301 -80.5t-301 80.5t-218.5 218.5t-80.5 301t80.5 301t218.5 218.5t301 80.5zM451 912q-75 -25 -140 -77q22 3 44 1q20 -8 45 -37.5t40 -38.5q5 -3 15 -4q4 -11 28 -15t27 -9q29 -15 45 -39
q-1 -1 -5.5 -7.5t-5.5 -8.5t-5 -7t-6.5 -7.5t-6 -6.5t-7 -6.5t-7.5 -4.5q0 -1 0.5 -1t0.5 -1q5 -8 -4 -13q-9 -3 -23.5 -6.5t-21 -6t-13.5 -11.5t-10 -25q-1 -5 -5 -10q4 -33 2 -58t-16 -28q-6 -1 -15 3q-9 2 -21.5 9t-30.5 21q1 -7 6 -18t6 -16h7q7 3 12.5 -2.5t0.5 -11.5
l-3 -6l-1 -3l8 -4q12 -10 22 -10.5t28 2.5q15 5 31.5 2.5t27 -6t24 -12.5t22.5 -16t22 -17.5t23 -17.5q4 -3 25 -15.5t32 -23.5t11 -24q-1 -32 -2 -45.5t-8 -34.5t-21 -36l-27.5 -22t-28 -25.5t-17.5 -27.5q-5 -13 -5 -32q-7 -11 -13.5 -24.5t-13 -28t-11.5 -23.5
q119 -23 232 15t194 126q60 64 91 144t34 166l-46 -28q-28 5 -29 -7l19 -8q5 -2 6 -5q4 -11 -5 -26q-7 -14 -35 -42q-2 -30 -6 -39q-4 -12 -10 -25v-16q-2 -10 -11 -28.5t-11 -28.5q-3 -33 -29 -61q-34 -34 -56 -30q-12 3 -17 14q-6 15 -18 43.5t-15 35.5q-4 11 -4 23
t2.5 28t2.5 23q1 12 -7 30t-9 24q-2 8 4 24q0 1 -10.5 3.5t-37.5 2.5h-10h-4q-54 0 -68 65q-7 42 17 80q1 3 1 9.5t1 9.5q11 2 20 21q9 1 25 3.5t30 4.5t29.5 3.5t29 0t22.5 -6.5q9 -6 18 -11q18 -11 30 -15l36 24q-12 20 -22 30q-34 39 -68 0l-83 8q-17 -13 -47 -13
q-2 13 -6 21q-8 16 -8.5 24t3.5 13t9 9q7 5 11 15t5.5 19t3.5 20.5t4 17.5q6 16 20 39q9 15 28 25t41.5 16.5t46.5 9.5t45 4q-44 38 -91 63q-13 1 -38 6t-35 6q-25 3 -58 -17q-25 -19 -61 -19q-44 0 -89 16t-78 33zM145 557q-10 -64 -3 -129t32 -128q35 -87 100 -152.5
t151 -101.5q2 22 6.5 81t9.5 92q-4 19 -27 61t-25 68q-1 25 1 36.5t2 17.5q-4 3 -11.5 9.5t-11.5 9.5q-9 9 -14 12q-12 5 -40 14.5t-40.5 14.5t-33 14t-36.5 20.5t-32.5 26.5t-27.5 34z" />
    <glyph glyph-name="uniF17A" unicode="&#xf17a;" 
d="M0 1075h1200v-326h-221v222h-96v-222h-222v-92h222v-224h96v224h221v-782h-532q23 88 -7 157q-31 69 -100 128q-33 29 -123 99q-46 33 -47 75q1 15 4.5 26.5t12 23t14 17.5t18.5 19q68 53 99 99q43 63 43 150q-1 79 -38 142q-23 40 -68 81h106l99 79h-370
q-89 0 -173 -27.5t-138 -79.5v211zM219 910q56 1 98 -31q81 -69 110 -187q22 -93 3 -154q-13 -35 -36 -61t-53 -35q-40 -12 -85 -7t-76 27q-76 59 -103 167q-19 83 -6 163q16 70 84 103q30 14 64 15zM0 429q107 -80 244 -63q-34 -81 1 -137q18 -27 35 -51q-25 -1 -61 -1
q-47 -2 -78.5 -5t-72 -15t-68.5 -33v305zM297 130q22 0 42 -3q16 -12 75.5 -53t88.5 -65q64 -56 65 -115q0 -11 -2 -19h-566v151q61 69 172 90q98 14 125 14z" />
    <glyph glyph-name="uniF17B" unicode="&#xf17b;" 
d="M600 1075q163 0 301 -80.5t218.5 -218.5t80.5 -301t-80.5 -301t-218.5 -218.5t-301 -80.5t-301 80.5t-218.5 218.5t-80.5 301t80.5 301t218.5 218.5t301 80.5zM251 739v-528h698v528h-698zM337 654h526v-358h-526v358zM785 626l-90 -156l-42 88l-27 55l-33 -51l-73 -115
l-31 32l-22 23l-24 -21l-87 -72l44 -52l62 52l38 -40l30 -32l24 37l64 100l43 -92l28 -58l33 56l122 212z" />
    <glyph glyph-name="uniF17C" unicode="&#xf17c;" 
d="M0 929h1200v-908h-1200v908zM148 783v-616h904v616h-904zM917 734l102 -58l-210 -364l-55 -96l-48 100l-75 156l-111 -171l-40 -63l-51 54l-66 69l-107 -89l-75 90l149 124l42 35l38 -40l52 -54l127 197l56 89l46 -95l72 -151z" />
    <glyph glyph-name="uniF17D" unicode="&#xf17d;" 
d="M600 1075q163 0 301 -80.5t218.5 -218.5t80.5 -301t-80.5 -301t-218.5 -218.5t-301 -80.5t-301 80.5t-218.5 218.5t-80.5 301t80.5 301t218.5 218.5t301 80.5zM599 741q-43 -2 -74 -30.5t-41 -68.5q-16 -55 9 -111q18 -36 49 -56l-45 -22l-118 -54q-18 -8 -18 -30v-110
q0 -14 1 -23.5t7.5 -18t19.5 -8.5h420q10 2 16 6.5t8 13.5t2 13v17v110q0 22 -17 29l-114 55l-48 23q44 28 60 90q8 36 -1 72q-6 22 -17 40.5t-26 32.5t-34 22t-39 8zM403 691q-44 -3 -70.5 -37.5t-26.5 -76.5q3 -71 53 -102l-133 -61q-14 -6 -14 -24v-105q1 -10 7 -18
t15 -8h88v110q0 22 10.5 39.5t28.5 26.5l89 41q12 7 19 17q-15 23 -23.5 50.5t-8.5 57.5q0 20 4 39t10 35q-21 16 -48 16zM797 691q-26 0 -51 -17q14 -36 14 -73q0 -59 -32 -107q10 -10 24.5 -19t25.5 -14t30 -13t28 -13q18 -9 29 -26.5t11 -39.5v-110h90q10 1 15.5 8.5
t6.5 17.5v105q0 17 -14 24l-130 62q49 36 50 101q-2 45 -29.5 79t-67.5 35z" />
    <glyph glyph-name="uniF17E" unicode="&#xf17e;" 
d="M597 887q77 0 132 -64t55 -155q0 -40 -12 -77t-33.5 -65.5t-49.5 -47.5l73 -35l176 -84q26 -14 26 -45v-202q0 -12 -4.5 -22.5t-14 -17.5t-23.5 -9h-649q-18 1 -29 15.5t-12 33.5v202q0 31 26 45l183 84l68 32q-29 18 -51.5 47.5t-35 67t-12.5 78.5q0 59 25 109.5t68 80
t94 29.5zM295 810q37 -1 75 -24q-27 -68 -20 -143t48 -139q-14 -16 -30 -25l-136 -65q-59 -27 -63 -100v-171h-136q-10 0 -17.5 5.5t-11 14.5t-4.5 20v161q0 29 21 37l205 95q-38 24 -59 66t-23 92q1 69 45 124q42 49 106 52zM904 810q60 -1 107 -52q43 -50 45 -124
q-1 -46 -21 -87t-59 -69l203 -97q21 -11 21 -37v-161q0 -16 -8.5 -27.5t-24.5 -12.5h-140v171q-1 67 -61 100l-131 62q-19 11 -36 31q39 60 46 133.5t-19 142.5q37 26 78 27z" />
    <glyph glyph-name="uniF17F" unicode="&#xf17f;" 
d="M624 689l-136 213q-6 12 -3.5 24t12.5 19q11 6 23 3.5t18 -12.5l136 -215q6 -11 3.5 -23.5t-12.5 -18.5q-11 -5 -23.5 -2t-17.5 12zM1195 649q23 -42 -58 -85q-33 2 -63 6.5t-54 8.5q-27 5 -50 10q-2 -13 -6.5 -27t-11.5 -29q-45 10 -89.5 29t-85 50.5t-63.5 69.5
l164 168l30 106l62 -77q10 -2 34.5 -7.5t37.5 -9.5t28.5 -14.5t21.5 -26.5q8 -12 15.5 -52.5t16.5 -52.5q14 -14 31 -25.5t40 -41.5zM579 293q-19 0 -59 7t-59 7q-33 4 -24 -30l54 -216q-1 -27 -14 -45t-34 -21q-19 -2 -37 11.5t-23 28.5l-70 272q-2 14 -15.5 13.5
t-17.5 -13.5l-64 -271q-6 -19 -20.5 -30.5t-33.5 -11.5q-27 0 -43.5 21t-11.5 46l78 320l7 194q-57 14 -110.5 48.5t-77.5 79.5q-7 16 -2.5 30t18.5 22q16 6 31.5 1.5t22.5 -15.5q23 -38 69.5 -62t86.5 -24h382q-38 -192 -33 -362zM673 633q95 -124 258 -158
q-5 -14 -15.5 -41t-15.5 -39q-5 -18 4 -51q36 -139 75 -282q5 -34 -19 -49t-52.5 -7.5t-35.5 29.5l-56 210q-12 21 -33 22t-28 -22l-50 -209q-12 -30 -41 -32.5t-50.5 16t-16.5 41.5l48 195q1 10 -2 20q2 226 30 357z" />
    <glyph glyph-name="uniF180" unicode="&#xf180;" 
d="M228 1075h415q33 -2 54.5 -24.5t22.5 -52.5v-186q17 -22 43 -47t52 -49.5t43 -45.5q22 -27 48 -42q25 -13 63 -18.5t70.5 -13t54.5 -27.5q18 -48 10 -94.5t-39 -85t-74 -53.5q-92 -32 -204 22q1 -66 -1 -329q-5 -68 -47 -111t-105 -43t-106.5 46.5t-44.5 107.5v129
q-38 7 -69 25q-81 -11 -143 42q-55 3 -93 23.5t-56 51.5t-25 73.5t-3 86t12 93.5t18.5 91.5t18 83.5t8.5 67v203q2 33 24.5 55t52.5 22zM228 798q-1 -18 -7 -50t-14.5 -66t-18 -74t-15.5 -78t-9 -75t3.5 -66.5t21 -50.5t44 -30t71.5 -3q18 -32 57 -42.5t69 9.5
q31 -32 65 -36.5t65 23.5q0 -58 0.5 -115t0.5 -115q1 -33 22 -54t51 -22q33 1 54 23t21 53q0 63 0.5 143t1 158.5t0.5 136.5q25 -3 63 -17.5t70 -26.5t66 -19t64.5 5.5t53.5 47.5q14 30 10 56q-3 5 -5.5 5.5t-8.5 2.5q-41 6 -61.5 10.5t-53 14t-56 25t-42.5 37.5
q-20 26 -57 58.5t-66.5 63t-44.5 65.5v3h-415z" />
    <glyph glyph-name="uniF181" unicode="&#xf181;" 
d="M1200 103q0 -20 -10 -37t-27.5 -28t-39.5 -12h-203q-23 -1 -59 -7.5t-72.5 -14.5t-79.5 -17t-83.5 -13.5t-80.5 -5t-73.5 9.5t-60 29t-43 54.5t-18.5 84.5q-53 62 -42 143q-19 31 -25 69h-129q-61 1 -107.5 44.5t-46.5 106.5t43 105t111 47q263 2 329 1q-54 112 -22 204
q12 32 37 58.5t57 40.5t68.5 16.5t70.5 -12.5q20 -22 27.5 -54.5t13 -70.5t18.5 -63q15 -26 42 -48q24 -19 69 -68t73 -70h186q20 -1 37 -10.5t28 -27t12 -39.5v-415zM923 103v415h-3q-35 15 -65.5 44.5t-63 66.5t-58.5 57q-22 19 -37.5 42.5t-25 56t-14 53t-10.5 61.5
q-2 6 -2.5 8.5t-5.5 5.5q-26 4 -56 -10q-35 -23 -47.5 -53.5t-5.5 -64.5t19 -66t26.5 -70t17.5 -63q-58 0 -136.5 -0.5t-158.5 -1t-143 -0.5q-15 0 -28.5 -5.5t-24 -15t-16.5 -24t-7 -30.5q1 -30 22 -51t54 -22q58 0 115 -0.5t115 -0.5q-28 -31 -23.5 -65t36.5 -65
q-20 -30 -9.5 -69t42.5 -57q-6 -42 3 -71.5t30 -44t50.5 -21t66.5 -3.5t75 9t78 15.5t74 18t66 14.5t50 7z" />
    <glyph glyph-name="uniF182" unicode="&#xf182;" 
d="M0 103v415q1 22 12 39.5t28 27t37 10.5h186q28 21 73 70t69 68q27 22 42 48q13 25 18.5 63t13 70.5t27.5 54.5q67 29 138 -3.5t95 -99.5q32 -92 -22 -204q66 1 329 -1q68 -5 111 -47t43 -105t-46.5 -106.5t-107.5 -44.5h-129q-7 -38 -25 -69q11 -81 -42 -143
q-3 -55 -23.5 -93t-51.5 -56t-73.5 -25t-86 -3t-93.5 12t-91.5 18.5t-83.5 18t-67 8.5h-203q-33 2 -55 24.5t-22 52.5zM277 103q18 -1 50 -7t66 -14.5t74 -18t78 -15.5t75 -9t66.5 3.5t50.5 21t30 44t3 71.5q32 18 42.5 57t-9.5 69q32 31 36.5 65t-23.5 65q58 0 115 0.5
t115 0.5q33 1 54 22t22 51q-1 33 -23 54t-53 21q-63 0 -143 0.5t-158.5 1t-136.5 0.5q3 25 17.5 63t26.5 70t19 66t-5.5 64.5t-47.5 53.5q-30 14 -56 10q-5 -3 -5.5 -5.5t-2.5 -8.5q-6 -41 -10.5 -61.5t-14 -53t-25 -56t-37.5 -42.5q-26 -20 -58.5 -57t-63 -66.5
t-65.5 -44.5h-3v-415z" />
    <glyph glyph-name="uniF183" unicode="&#xf183;" 
d="M228 -125q-30 0 -52.5 22t-24.5 55v203q-1 25 -8.5 67t-18 83.5t-18.5 91.5t-12 93.5t3 86t25 73.5t56 51.5t93 23.5q62 53 143 42q31 19 69 25v129q1 30 12.5 57.5t31 49t47.5 34.5t60 13q63 0 105 -43t47 -111q2 -263 1 -329q112 54 204 22q67 -24 99.5 -95t3.5 -138
q-22 -20 -54.5 -27.5t-70.5 -13t-63 -18.5q-26 -15 -48 -42q-19 -24 -68 -69t-70 -73v-186q-1 -10 -3.5 -19.5t-7 -17.5t-11.5 -15.5t-15.5 -12.5t-18.5 -8t-21 -4h-415zM228 152h415v3q12 27 33.5 53t43 44t48.5 43t43 47q19 22 42.5 37.5t56 25t53 14t61.5 10.5
q6 2 8.5 2.5t5.5 5.5q4 26 -10 56q-23 35 -53.5 47.5t-64.5 5.5t-66 -19t-70 -26.5t-63 -17.5q0 68 -1 214.5t-1 223.5q0 31 -21 53t-54 23q-30 -1 -51 -22t-22 -54q0 -58 -0.5 -115t-0.5 -115q-31 28 -65 23.5t-65 -36.5q-30 20 -69 9.5t-57 -42.5q-42 6 -71.5 -3t-44 -30
t-21 -50.5t-3.5 -66.5t9 -75t15.5 -78t18 -74t14.5 -66t7 -50z" />
    <glyph glyph-name="uniF184" unicode="&#xf184;" 
d="M240 985h720l240 -645l-96 -375h-1008l-96 375zM94 281l65 -257h882l65 257h-1012zM928 201q20 0 34 -14.5t14 -34t-14 -33.5t-34 -14t-34 14t-14 33.5t14 34t34 14.5z" />
    <glyph glyph-name="uniF185" unicode="&#xf185;" 
d="M1050 138v300q0 91 -35.5 174.5t-96 143.5t-143.5 96t-175 36t-175 -36t-143.5 -96t-96 -143.5t-35.5 -174.5v-300q-4 -38 -28 -56t-50.5 -15t-48.5 22.5t-23 48.5v300q0 122 47.5 233t128 191t191.5 128t233 48t233 -48t191.5 -128t128 -191t47.5 -233v-300
q-4 -38 -28 -56t-50.5 -15t-48.5 22.5t-23 48.5zM262 362h76q10 0 18.5 -5t13.5 -13.5t5 -18.5v-375q0 -16 -11 -27t-26 -11h-76q-15 0 -26 11t-11 27v375q0 16 11 26.5t26 10.5zM862 362h76q15 0 26 -10.5t11 -26.5v-375q0 -16 -11 -27t-26 -11h-76q-15 0 -26 11t-11 27
v375q0 16 11 26.5t26 10.5z" />
    <glyph glyph-name="uniF186" unicode="&#xf186;" 
d="M1160 1057q19 -23 19 -49.5t-19 -45.5l-164 -166q-23 -20 -49 -19.5t-46 19.5q-19 22 -19 49.5t19 45.5l165 166q21 18 48 18t46 -18zM340 326q21 18 48 18t46 -18q19 -22 19 -50t-19 -46l-300 -302q-23 -20 -48.5 -19.5t-45.5 19.5q-19 22 -19 49.5t19 45.5zM628 545
q-1 36 -26 60.5t-58 24.5q-36 -2 -60.5 -27t-24.5 -58q-1 -15 -7.5 -26.5t-17.5 -18t-25 -6.5q-23 1 -37 15.5t-14 35.5q3 81 55 133q57 54 131 54q78 -2 131 -54q54 -58 54 -133q-1 -23 -15 -37t-35 -14q-23 1 -36.5 15.5t-14.5 35.5zM544 928q75 -1 143.5 -30t118.5 -79
q52 -55 80 -124t29 -140q-2 -62 -14 -101t-43 -90q-10 -22 -28.5 -46t-39 -48.5t-31.5 -42.5q-7 -22 -8 -47t1 -57.5t1 -50.5q-1 -47 -18.5 -91.5t-47.5 -68.5q-63 -37 -137 -37q-26 2 -42 18.5t-17 41.5q-2 24 16 42q12 12 25 16.5t31 5.5t29 3q29 9 33 21q7 22 7 71
q1 18 0 45.5t-1 51t5 44.5q11 49 36 81q5 6 12 14t13.5 15.5t10.5 13.5q11 14 38 56q7 11 18.5 30.5t16.5 27.5q13 37 13 82q-4 107 -73 178q-78 73 -177 73q-106 -3 -177 -73q-73 -78 -74 -178q-2 -27 -18.5 -44t-40.5 -17q-27 2 -44 19t-17 42q1 76 29.5 144.5t78.5 119.5
q54 52 123 80.5t140 28.5z" />
    <glyph glyph-name="uniF187" unicode="&#xf187;" 
d="M600 1075q163 0 301 -80.5t218.5 -218.5t80.5 -301t-80.5 -301t-218.5 -218.5t-301 -80.5t-301 80.5t-218.5 218.5t-80.5 301t80.5 301t218.5 218.5t301 80.5zM733 731q-37 0 -73 -14q-36 -19 -60 -51q-47 58 -124 64.5t-138 -46.5q-44 -47 -48.5 -119t26.5 -134
q56 -103 227 -233q3 -2 16 -12.5t22.5 -16.5t18.5 -8q14 2 60.5 37t80.5 68q69 58 113 119q39 52 52 113.5t-7 129.5q-23 49 -67.5 76.5t-98.5 26.5z" />
    <glyph glyph-name="uniF188" unicode="&#xf188;" 
d="M832 1029q73 1 139 -24t119 -73.5t84 -115.5l1 -3l1 -3q28 -84 23.5 -170t-33 -162t-77.5 -142v-1v0q-80 -110 -204 -216q-1 0 -1.5 -0.5l-0.5 -0.5q-63 -59 -136 -115q-42 -32 -73 -52q-3 -2 -8.5 -5.5t-9 -5.5t-8.5 -5t-9 -5t-9.5 -3.5t-12 -3t-13.5 -1.5l-7 -1l-7 2
q-34 6 -75 37q-8 6 -17.5 14t-17 14t-11.5 9h-1q-66 50 -118.5 94t-110.5 99t-105 114.5t-79 119.5l-1 1v2q-40 83 -51 172t13 177.5t86 152.5l1 1l2 2q112 96 251 96t242 -89q38 35 84 58l2 2l2 1q72 28 146 29zM834 923q-52 -1 -106 -22q-51 -26 -86 -72l-41 -53l-43 52
q-43 54 -110 78t-140 11.5t-130 -63.5q-43 -45 -59.5 -110t-8 -135t39.5 -136q92 -170 382 -390l1 -1q9 -6 24.5 -19t21.5 -18q10 -7 20 -13q11 5 18 10q26 16 65 46q71 54 130 109l1 1l1 1q116 99 189 199v1q61 82 81.5 176.5t-8.5 198.5q-34 72 -98.5 111.5t-143.5 37.5z
" />
    <glyph glyph-name="uniF189" unicode="&#xf189;" 
d="M1177 825q20 -62 22.5 -126t-10.5 -124t-38 -115t-62 -104q-84 -116 -216 -229q-40 -37 -93 -81t-107 -81.5t-74 -39.5q-16 4 -34.5 15.5t-44 32t-30.5 24.5q-70 53 -127.5 101t-118 106t-109.5 120t-82 122q-39 83 -50 170t12 171.5t80 144.5q75 68 171.5 85.5
t185.5 -14.5t147 -104q48 62 117 97q69 27 140 28t131.5 -22t110.5 -68.5t79 -108.5z" />
    <glyph glyph-name="uniF18A" unicode="&#xf18a;" 
d="M600 1075q163 0 301 -80.5t218.5 -218.5t80.5 -301t-80.5 -301t-218.5 -218.5t-301 -80.5t-301 80.5t-218.5 218.5t-80.5 301t80.5 301t218.5 218.5t301 80.5zM600 799l-293 -228v-420h202v254h182v-254h202v420z" />
    <glyph glyph-name="uniF18B" unicode="&#xf18b;" 
d="M600 1075l543 -422v-778h-373v469h-340v-469h-373v778z" />
    <glyph glyph-name="uniF18C" unicode="&#xf18c;" 
d="M109 1075h53h876h53v-53q0 -72 3 -170q2 -37 2.5 -52.5t-1.5 -40t-2.5 -32.5t-9 -27t-13.5 -25t-22.5 -26t-30 -31.5t-41.5 -38.5q-65 -61 -109 -104q49 -49 118 -113q27 -25 38.5 -35.5t28 -29.5t21 -25t12.5 -25.5t8.5 -27.5t2.5 -33.5t1 -42t-2 -54.5q-4 -94 -4 -161
v-53h-53h-876h-53v53q0 51 -1 104t-3.5 78.5t-0.5 57.5t1.5 43.5t9 34t16.5 30.5t28.5 32.5t40.5 40.5t58 53.5t75 72.5q-49 49 -118 114q-27 25 -38.5 35.5t-28 29.5t-21 25t-12.5 25t-8.5 27t-2.5 34t-1 42t2 55q4 94 4 160v53zM214 970v-23v-73.5t2.5 -55.5t3.5 -44
t9 -33t13 -29.5t21.5 -26.5t28.5 -30.5t39 -35.5q21 -18 33.5 -30t35.5 -34t45 -43l37 -37l-37 -37q-31 -31 -64 -62t-52.5 -47.5t-40.5 -37.5t-31.5 -33.5t-21.5 -34t-15 -40t-6.5 -50t-2 -66.5t2.5 -87h772v23v74t-2.5 55.5t-3.5 43.5t-9 33t-13 29.5t-21.5 26.5t-28.5 30
t-39 35q-67 61 -114 108l-37 37l37 37q31 31 64 62t52.5 47.5t40.5 37.5t31.5 34t21.5 34t15 39.5t6.5 50t2 66.5t-2.5 87h-772zM321 754q76 -11 139.5 -16t101.5 -7t104.5 3t92 7.5t119.5 12.5q-24 -17 -67.5 -43t-72.5 -45t-60 -45.5t-46.5 -59.5t-14.5 -73h-51
q-8 44 -26.5 78.5t-46 60t-54 44t-61.5 41.5t-57 42zM597.5 314.5q72.5 -0.5 135 -24t104.5 -74.5t42 -119h-557q-2 70 39 121t102.5 74t134 22.5z" />
    <glyph glyph-name="uniF18D" unicode="&#xf18d;" 
d="M600 1075q163 0 301 -80.5t218.5 -218.5t80.5 -301t-80.5 -301t-218.5 -218.5t-301 -80.5t-301 80.5t-218.5 218.5t-80.5 301t80.5 301t218.5 218.5t301 80.5zM580 853v-120h40v120h-40zM413 817l-33 -23l69 -99l33 24zM787 817l-69 -98l33 -24l69 99zM600 700
q-75 0 -128 -39.5t-53 -95.5l103 -311h156l103 311q0 56 -53 95.5t-128 39.5zM276 664l-14 -38l112 -41l14 38zM924 664l-112 -41l14 -38l112 41zM383 489l-116 -31l11 -39l116 31zM817 489l-11 -39l116 -31l11 39zM520 232v-54h160v54h-160zM520 151v-54h160v54h-160z" />
    <glyph glyph-name="uniF18E" unicode="&#xf18e;" 
d="M568 1075h64v-190h-64v190zM304 1018l109 -156l-53 -37l-109 156zM896 1018l53 -37l-109 -156l-53 37zM600 832q119 0 202.5 -62.5t83.5 -151.5l-162 -493h-248l-163 493q0 89 84 151.5t203 62.5zM85 775l179 -65l-22 -61l-179 66zM1115 775l22 -60l-179 -66l-22 61z
M256 497l16 -62l-183 -49l-17 62zM944 497l184 -49l-17 -62l-183 49zM473 89h254v-86h-254v86zM473 -39h254v-86h-254v86z" />
    <glyph glyph-name="uniF18F" unicode="&#xf18f;" 
d="M600 1075q163 0 301 -80.5t218.5 -218.5t80.5 -301t-80.5 -301t-218.5 -218.5t-301 -80.5t-301 80.5t-218.5 218.5t-80.5 301t80.5 301t218.5 218.5t301 80.5zM527 859v-168h-86l159 -238l159 238h-86v168h-146zM240 485v-347h720v347h-236q0 -51 -36.5 -87t-87.5 -36
t-87.5 36t-36.5 87h-236z" />
    <glyph glyph-name="uniF190" unicode="&#xf190;" 
d="M94 438h206l150 -150h300l150 150h206l-278 374h-456zM329 888h542l329 -450v-376h-1200v376z" />
    <glyph glyph-name="uniF191" unicode="&#xf191;" 
d="M478 1075h244v-280h142l-264 -396l-264 396h142v280zM0 453h394q0 -56 27.5 -103t75 -75t103.5 -28q85 0 145.5 60.5t60.5 145.5h394v-578h-1200v578z" />
    <glyph glyph-name="uniF192" unicode="&#xf192;" 
d="M1200 975v-176h-1200v176h1200zM0 700l338 -225l-338 -225v450zM1200 699v-176h-694v176h694zM1200 425v-175h-694v175h694zM0 151h1200v-176h-1200v176z" />
    <glyph glyph-name="uniF193" unicode="&#xf193;" 
d="M0 975h1200v-176h-1200v176zM1200 700v-450l-338 225zM0 699h694v-176h-694v176zM0 425h694v-175h-694v175zM1200 151v-176h-1200v176h1200z" />
    <glyph glyph-name="uniF194" unicode="&#xf194;" 
d="M600 1075q163 0 301 -80.5t218.5 -218.5t80.5 -301t-80.5 -301t-218.5 -218.5t-301 -80.5t-301 80.5t-218.5 218.5t-80.5 301t80.5 301t218.5 218.5t301 80.5zM581 869q-41 0 -67 -22q-25 -23 -25 -59.5t25 -58.5q26 -22 67 -22t67 22t26 58.5t-26 59t-67 22.5zM667 606
q-38 0 -107 -16.5t-112 -33.5l9 -47l42 8q31 0 31 -41v-295q0 -24 -17 -34q-20 -14 -63 -24l10 -42q99 10 141 10t143 -10l8 42q-41 12 -62 25q-12 6 -16 12q-2 6 -2 21v289q0 60 19 109z" />
    <glyph glyph-name="uniF195" unicode="&#xf195;" 
d="M0 1075h1200v-342h-372q-41 53 -103 84t-133 31q-29 0 -56.5 -5t-53 -15t-48.5 -24.5t-42.5 -32t-36.5 -38.5h-355v342zM960 1024q-30 0 -51 -21t-21 -51v-94q0 -30 21 -51t51 -21h112q30 0 51.5 21t21.5 51v94q0 30 -21.5 51t-51.5 21h-112zM132 1023v-237h41v237h-41z
M202 1023v-237h42v237h-42zM274 1023v-237h41v70v96v71h-41zM101 1017q-18 -8 -30 -25.5t-12 -39.5v-166h42v231zM591 814q109 0 186.5 -77t77.5 -185.5t-77.5 -185.5t-186.5 -77t-186 77t-77 185.5t77 185.5t186 77zM591 761q-57 0 -105.5 -28t-76.5 -76.5t-28 -104.5
q0 -87 61.5 -148t148.5 -61t148.5 61t61.5 147.5t-61.5 148t-148.5 61.5zM0 684h324q-31 -62 -31 -132q0 -41 10.5 -79t30 -70.5t47 -60t60.5 -46.5t71.5 -29.5t79.5 -10.5q123 0 211 86.5t88 209.5q0 70 -32 132h341v-809h-1200v809z" />
    <glyph glyph-name="uniF196" unicode="&#xf196;" 
d="M600 1075q163 0 301 -80.5t218.5 -218.5t80.5 -301t-80.5 -301t-218.5 -218.5t-301 -80.5t-301 80.5t-218.5 218.5t-80.5 301t80.5 301t218.5 218.5t301 80.5zM392 732q-19 0 -33.5 -14t-15.5 -34v-417q0 -20 14 -34t35 -15h416q20 0 34 14t15 35v417q0 19 -14 33t-35 15
h-416zM462 638h276q6 -1 11.5 -4t9 -8.5t4.5 -12.5v-274q-1 -7 -4 -12.5t-8.5 -9t-12.5 -3.5h-276q-5 0 -9 1.5t-7.5 5t-5.5 8t-3 10.5v274q1 4 2 7.5t3 6.5t5 5.5t7 3.5z" />
    <glyph glyph-name="uniF197" unicode="&#xf197;" 
d="M578 -40h153l-17 -85h-468l16 85h153l206 1029h-153l18 86h468l-17 -86h-153l-206 -1029v0z" />
    <glyph glyph-name="uniF198" unicode="&#xf198;" 
d="M328 803q75 0 141.5 -32t112.5 -88t64 -126h1h553v-139h-76v-264h-140v264h-66v-183h-139v183h-127h-1q-20 -117 -111 -194t-212 -77q-89 0 -164.5 44t-119.5 119.5t-44 164.5t44 164.5t119.5 119.5t164.5 44zM328 651q-73 0 -124.5 -51.5t-51.5 -124.5t51.5 -124.5
t124.5 -51.5t125 51.5t52 124.5t-52 124.5t-125 51.5z" />
    <glyph glyph-name="uniF199" unicode="&#xf199;" 
d="M600 1075q163 0 301 -80.5t218.5 -218.5t80.5 -301t-80.5 -301t-218.5 -218.5t-301 -80.5t-301 80.5t-218.5 218.5t-80.5 301t80.5 301t218.5 218.5t301 80.5zM290 751v-406h620v406h-620zM367 677h466v-258h-466v258zM212 308v-68l40 -41h696l40 41v68h-776zM528 286
h144v-62h-144v62z" />
    <glyph glyph-name="uniF19A" unicode="&#xf19a;" 
d="M120 902h960v-628h-960v628zM239 788v-399h722v399h-722zM0 217h1200v-106l-61 -63h-1078l-61 63v106zM489 182v-96h222v96h-222z" />
    <glyph glyph-name="uniF19B" unicode="&#xf19b;" 
d="M600 1075q163 0 301 -80.5t218.5 -218.5t80.5 -301t-80.5 -301t-218.5 -218.5t-301 -80.5t-301 80.5t-218.5 218.5t-80.5 301t80.5 301t218.5 218.5t301 80.5zM390 753h-8q-42 -1 -69 -8q-52 -12 -98 -44t-77.5 -80t-42.5 -108.5t5 -129.5q23 -82 86 -140.5t145 -73.5
q52 -10 106 0q43 8 93 37t80 64q0 4 -16 38.5t-18 34.5q-24 -34 -60.5 -59.5t-82.5 -39t-100 -0.5t-102 56q-43 42 -58 102t1 122q22 62 81.5 108t129.5 46q60 0 108.5 -27t80.5 -77q27 -45 69 -149.5t63 -144.5q42 -84 123 -106q65 -15 124.5 3t95.5 64.5t33 109.5
q-2 35 -14 60.5t-37 43.5t-49.5 29.5t-65.5 24.5q-49 17 -67.5 25.5t-29.5 19.5q-15 18 -16.5 42t8 44t29.5 32.5t45 8.5q44 0 86 -44l53 29q-28 46 -67.5 65.5t-68.5 15.5q-40 1 -74 -13.5t-55 -42t-26.5 -66.5t11.5 -86q30 -62 144 -98q19 -6 38 -14.5t43 -25t36 -34.5
t8.5 -45t-29.5 -56q-20 -22 -57 -29.5t-78 6.5t-66 48q-15 31 -40.5 91.5t-52.5 120.5t-52 107q-56 94 -151 127q-45 16 -97 16z" />
    <glyph glyph-name="uniF19C" unicode="&#xf19c;" 
d="M132 235q-18 43 -20 56q-10 72 5.5 143t50 129.5t83.5 109.5t103.5 87.5t111.5 60.5q50 20 112.5 25t117 1t108 -5.5t102.5 13.5t85 52q19 22 32.5 34.5t35 23.5t43.5 11q33 -1 46 -27q76 -165 43 -332t-134 -304t-232 -207q-252 -125 -486 -44q-19 5 -59 30.5t-65 26.5
q-14 -8 -27.5 -26t-29.5 -45.5t-21 -34.5q-19 -33 -50.5 -38.5t-58.5 21.5q-24 24 -27 49.5t10 47t33 43.5t41 39t34.5 33.5t12.5 26.5zM269 277q17 -13 37.5 -11t33.5 16q100 120 233 177.5t286 53.5q22 -1 37 13.5t16 34.5q1 22 -13.5 36.5t-35.5 15.5q-176 10 -330 -60.5
t-269 -204.5q-14 -17 -12 -37.5t17 -33.5z" />
    <glyph glyph-name="uniF19D" unicode="&#xf19d;" 
d="M0 1075h1200v-240h-1200v240zM0 595h1200v-240h-1200v240zM0 115h1200v-240h-1200v240z" />
    <glyph glyph-name="uniF19E" unicode="&#xf19e;" 
d="M321 -125l-321 321l401 401l121 -122l78 78l-122 121l401 401l321 -321l-401 -401l-121 122l-78 -78l122 -121zM321 32l244 244l-43 43l-79 -79l-78 78l79 79l-43 43l-244 -244zM799 510l244 244l-164 164l-244 -244l43 -43l79 79l78 -78l-79 -79z" />
    <glyph glyph-name="uniF19F" unicode="&#xf19f;" 
d="M0 1075h1200v-1200h-1200v1200zM294 839q-41 -1 -69 -27t-28 -63q1 -40 29.5 -65t65.5 -25h1q41 1 69.5 27t28.5 63q-1 27 -15.5 48t-35.5 31.5t-46 10.5zM804 601q-63 -1 -103 -30q-27 -20 -53 -57v74h-172q1 -21 1 -84q0 -109 -1 -437h172v291q1 28 7 42q31 63 88 64
q33 -1 53.5 -20.5t27.5 -44t7 -53.5v-279h172v299q-2 117 -57 177q-55 57 -142 58zM207 588v-521h172v521h-172z" />
    <glyph glyph-name="uniF1A0" unicode="&#xf1a0;" 
d="M600 1075q48 0 82.5 -36t34.5 -84l-1 -117h116h6h32v-38v-75h-540v75v38h32h6h116q1 55 1 118q0 32 15 59.5t41.5 43.5t58.5 16zM175 961h269v-79h-191v-928h694v928h-191v79h269v-1086h-850v1086zM600 959q-11 0 -19.5 -5t-14 -14t-5.5 -19q0 -16 11.5 -27.5t27.5 -11.5
t27.5 11.5t11.5 27.5t-11.5 27t-27.5 11zM330 649h38v-39h-38v39zM446 648h424v-39h-424v39zM330 503h38v-38h-38v38zM446 503h424v-39h-424v39zM330 358h38v-38h-38v38zM446 357h424v-38h-424v38zM330 213h38v-39h-38v39zM446 212h424v-39h-424v39zM330 67h38v-38h-38v38z
M446 67h424v-39h-424v39z" />
    <glyph glyph-name="uniF1A1" unicode="&#xf1a1;" 
d="M0 91h216v-216h-216v216zM0 91v-216h216v216h-216zM0 419h216v-216h-216v216zM0 747h216v-216h-216v216zM0 1075h216v-216h-216v216zM318 91v-216h882v216h-882zM318 91h882v-216h-882v216zM318 419h882v-216h-882v216zM318 747h882v-216h-882v216zM318 1075h882v-216
h-882v216z" />
    <glyph glyph-name="uniF1A2" unicode="&#xf1a2;" 
d="M310 -115q-77 20 -130.5 84t-62.5 145q-30 210 135 445q-31 71 -73 8q-89 -122 -136 -280q-6 41 1 83.5t29.5 87.5t38.5 72.5t47 72.5l18 27q-3 11 -8.5 23.5t-12 24t-14 23t-14.5 20.5t-12.5 16.5t-9 11t-2.5 3.5q-11 13 -20.5 29.5t-17 36.5t-11 39t-0.5 38t13 33
q39 65 102.5 107t134.5 40q21 -5 40.5 -20t31 -29t29.5 -38.5t26 -34.5l13.5 -18t14.5 -19.5t13 -17.5q121 65 229.5 96t215.5 11q57 -9 106.5 -41t82.5 -81.5t43 -105.5q28 -137 -18.5 -277t-140.5 -267q-209 -277 -469 -345q-122 -25 -212 -3zM582 -37q52 17 102 46
t96 69.5t81 77t79 86.5q87 111 128.5 240t16.5 255q-19 85 -89.5 143t-157.5 61q-152 10 -324 -79q-2 -16 15 -37t33 -3q84 43 171.5 55t177.5 -14q56 -20 92.5 -69.5t37.5 -109.5q7 -80 -22 -162t-75.5 -146t-110.5 -123q-31 -36 -64 -45t-81 12q-24 11 -119.5 52
t-145.5 67q-25 23 -49 53.5t-52 70t-44 59.5q-7 -10 -15 -23t-18.5 -33t-13.5 -26q-32 -64 -49.5 -124.5t-14 -130.5t36.5 -126q44 -76 132 -104t179 -9q34 6 67 17zM740 226q-12 65 -45 329q-25 40 -81 116.5t-80 116.5q-8 11 -37 50t-43 57t-37 46.5t-42 49.5
q-23 39 -62 54t-80 -4q-39 -16 -71 -39t-57 -57.5t-32 -72.5q8 -28 24 -56t42 -63t36 -51q30 -39 116.5 -161t136.5 -181q265 -116 314 -140zM448 400q-20 10 -37 31t-34 48.5t-30 41.5q-12 18 -45.5 62.5t-56 77.5t-40.5 65q5 18 12 32t10.5 19.5t17 20.5t18.5 20
q3 3 19.5 15t25.5 18t25.5 15.5t29 12t27 3t27.5 -8t24 -24.5q136 -173 199 -275l56 -234l-50 -40q-22 13 -71.5 38t-87.5 44zM400 623q-11 15 -30 41.5t-31.5 43.5t-30 39.5t-34.5 40.5q-50 -34 -17 -96q7 -13 23 -38l4 -6q13 -17 68.5 -93.5t88.5 -114.5q23 21 28 43.5
t-4 43t-21 38t-26.5 34.5t-17.5 24zM609 568q-7 22 -21 45t-35 50t-31 42q-107 144 -121 162q-7 -3 -37 -14t-43 -25q56 -86 134 -193q35 -44 75 -63.5t79 -3.5zM155 776q-43 51 41 129q6 6 18 16l4 4q65 54 126 45q23 -4 39.5 -24.5t0.5 -33.5q-16 -10 -46.5 -27.5t-50 -29
t-42.5 -32.5t-37 -45q-14 -27 -25.5 -27t-27.5 25zM204 815q15 24 38.5 42t61 38t49.5 29q-3 21 -17 26.5t-33.5 -2t-35.5 -17.5t-29 -20q-4 -4 -15 -14t-18.5 -17t-17.5 -18t-15 -20t-7.5 -18.5t2 -18.5t15.5 -16q5 3 8 7t8 10.5t6 8.5zM106 854q-5 29 8.5 57.5t34.5 48.5
t47 37q37 23 79 25q38 3 34 -26v-2q-55 -17 -101 -53t-75 -84q-6 -10 -14 -12.5t-13 9.5zM880 362q140 186 94 336q-12 39 -41.5 67t-65.5 41.5t-77.5 18t-78.5 -4.5q-9 -3 -24 -6.5t-29 -6t-29 -7t-25.5 -9.5t-16.5 -14t-5 -21q15 -22 133 -180q5 -39 13.5 -106t16 -123
t15.5 -105q49 35 120 120z" />
    <glyph glyph-name="uniF1A3" unicode="&#xf1a3;" 
d="M600 1075q163 0 301 -80.5t218.5 -218.5t80.5 -301t-80.5 -301t-218.5 -218.5t-301 -80.5t-301 80.5t-218.5 218.5t-80.5 301t80.5 301t218.5 218.5t301 80.5zM596 800q-61 1 -111 -33t-76 -91q-17 -42 -16 -150h-90v-376h594v376h-98v71q0 41 -17 79q-15 36 -43.5 64
t-65.5 44t-77 16zM591 681h5q35 -1 58.5 -24.5t25.5 -58.5v-1v-71h-168v71q4 37 25 60t54 24z" />
    <glyph glyph-name="uniF1A4" unicode="&#xf1a4;" 
d="M592 1075q111 -1 205.5 -64.5t138.5 -164.5q31 -71 31 -145v-132h181v-694h-1096v694h167q0 50 -0.5 96t7 95.5t22.5 85.5q48 106 140.5 168t203.5 61zM592 854q-64 2 -105.5 -40.5t-47.5 -112.5v-132h308v132v1q-2 42 -22 76t-55 54.5t-78 21.5z" />
    <glyph glyph-name="uniF1A5" unicode="&#xf1a5;" 
d="M339 1075l66 -277l280 -59l-278 -66l-59 -279l-67 277l-280 59l278 66zM1073 1062l119 -118l-219 -218l-119 119zM775 765v0l119 -118l-775 -772l-119 119zM1015 627l36 -148l149 -31l-149 -36l-31 -149l-36 148l-149 32l148 35zM771 357l39 -163l165 -35l-164 -39
l-34 -164l-40 163l-164 35l163 39z" />
    <glyph glyph-name="uniF1A6" unicode="&#xf1a6;" 
d="M600 1075q113 0 216 -41.5t177.5 -111.5t118.5 -167t44 -203q0 -23 -2 -46l-11 -230l-351 29l11 230q1 8 1 17q0 79 -60 135t-144 56q-41 0 -79 -15t-65 -41t-43.5 -61t-16.5 -74q0 -8 1 -17l11 -230l-352 -29l-10 230q-2 23 -2 46q0 85 28 164.5t79.5 144t120 113
t153 75t175.5 26.5zM420 169l23 -262l-352 -31l-23 262zM780 168l351 -31l-23 -262l-351 31z" />
    <glyph glyph-name="uniF1A7" unicode="&#xf1a7;" 
d="M727 1075h469q0 -74 -0.5 -235t-0.5 -234h-167v181l-237 -236q76 -110 76 -244q0 -71 -22 -136.5t-62 -119t-93 -93t-118.5 -61.5t-136.5 -22q-117 0 -216.5 58t-157 157t-57.5 216.5t57.5 217t157 157t216.5 57.5q128 0 234 -69l241 239h-183v167zM435 564
q-70 0 -129.5 -34.5t-94 -93.5t-34.5 -129q0 -107 76 -182.5t182.5 -75.5t182 75.5t75.5 182t-75.5 182t-182.5 75.5z" />
    <glyph glyph-name="uniF1A8" unicode="&#xf1a8;" 
d="M600 1075q163 0 301 -80.5t218.5 -218.5t80.5 -301t-80.5 -301t-218.5 -218.5t-301 -80.5t-301 80.5t-218.5 218.5t-80.5 301t80.5 301t218.5 218.5t301 80.5zM600 872q-124 0 -211.5 -87.5t-87.5 -211.5q0 -98 42 -154l257 -341l257 341q14 18 23.5 45t14 55t4.5 54
q0 124 -87.5 211.5t-211.5 87.5zM600 698q52 0 89 -36.5t37 -88.5t-37 -89t-89 -37t-89 37t-37 89t37 88.5t89 36.5z" />
    <glyph glyph-name="uniF1A9" unicode="&#xf1a9;" 
d="M600 1075q92 0 176 -36t144.5 -96.5t96 -144t35.5 -175.5q0 -62 -16.5 -127t-46.5 -105l-389 -516l-389 516q-63 83 -63 232q0 73 22.5 142t64.5 125t97.5 97.5t124.5 64.5t143 23zM600 813q-79 0 -134.5 -56t-55.5 -134.5t55.5 -134.5t134.5 -56t134.5 56t55.5 134.5
t-55.5 134.5t-134.5 56z" />
    <glyph glyph-name="uniF1AA" unicode="&#xf1aa;" 
d="M600 1075q163 0 301 -80.5t218.5 -218.5t80.5 -301t-80.5 -301t-218.5 -218.5t-301 -80.5t-301 80.5t-218.5 218.5t-80.5 301t80.5 301t218.5 218.5t301 80.5zM579 865q-29 -2 -58 -11v-104h-43v87q-30 -14 -54 -34v-428q76 -63 176 -63q99 0 176 63v428q-24 19 -53 34
v-87h-43v104q-29 9 -58 11v-115h-43v115zM340 524v-219q23 -22 50 -40q64 -41 139 -55v-72h-85v-53h85h142h85v53h-85v72q75 14 139 55q27 18 50 40v219h-50v-194q-92 -75 -210 -75t-210 75v194h-50zM529 210v25h142v-25q-35 -7 -71 -7t-71 7z" />
    <glyph glyph-name="uniF1AB" unicode="&#xf1ab;" 
d="M568 1075v-178h66v178q44 -4 89 -18v-160h66v134q45 -22 81 -52h1v-658h-1q-118 -97 -270 -97q-153 0 -270 97h-1v658h1q36 30 82 53v-135h66v161q45 13 90 17zM200 550h78v-298q140 -115 322 -115t322 115v298h78v-337q-36 -33 -78 -60q-98 -64 -212 -86v39h-220v-39
q-114 22 -212 86q-42 27 -78 60v337zM710 67v-110h130v-82h-130h-220h-130v82h130v110q54 -10 110 -10t110 10z" />
    <glyph glyph-name="uniF1AC" unicode="&#xf1ac;" 
d="M600 1075q163 0 301 -80.5t218.5 -218.5t80.5 -301t-80.5 -301t-218.5 -218.5t-301 -80.5t-301 80.5t-218.5 218.5t-80.5 301t80.5 301t218.5 218.5t301 80.5zM255 573v-196h690v196h-690z" />
    <glyph glyph-name="uniF1AD" unicode="&#xf1ad;" 
d="M0 645h1200v-340h-1200v340z" />
    <glyph glyph-name="uniF1AE" unicode="&#xf1ae;" 
d="M0 475l205 205l1 -143h332v332l-145 -1l207 207l205 -205l-143 -1v-332h332l-1 145l207 -207l-205 -205l-1 143h-332v-332l145 1l-207 -207l-205 205l143 1v332h-332l1 -145z" />
    <glyph glyph-name="uniF1AF" unicode="&#xf1af;" 
d="M365 995l835 63q-1 -24 -3.5 -77t-7 -163.5t-9.5 -216.5t-9.5 -210t-7.5 -172t-3 -77q-3 -62 -56.5 -110.5t-131.5 -59.5q-87 -13 -155.5 27t-78.5 109q-7 45 16 87t68.5 71.5t102.5 37.5q84 12 152 -26l29 564l-652 -68q-26 -626 -31 -708v-6v-1v1q-3 -30 -18 -58
t-39.5 -49.5t-58.5 -37t-72 -21.5q-87 -12 -155.5 28t-78 108.5t45 126t141.5 69.5q80 12 146 -22z" />
    <glyph glyph-name="uniF1B0" unicode="&#xf1b0;" 
d="M331 181l-1 -75h-330v75q0 67 49.5 115t117.5 48t116.5 -48t47.5 -115zM317 520.5q0 -62.5 -44 -106.5t-106 -44q-41 0 -75.5 20.5t-55 55t-20.5 75.5q0 62 44.5 106t106.5 44t106 -44t44 -106.5zM740 192l-1 -86h-380v86q0 78 56.5 133t135 55t134.5 -55t55 -133z
M724 584q0 -72 -50.5 -122.5t-122.5 -50.5t-123 50.5t-51 122.5t51 122.5t123 50.5t122.5 -50.5t50.5 -122.5zM1200 204l-1 -98h-431v98q0 88 64 150.5t153.5 62.5t152.5 -62.5t62 -150.5zM1181 647.5q0 -81.5 -57 -139t-138.5 -57.5t-139 57.5t-57.5 139.5q0 53 26.5 98
t71.5 71.5t99 26.5q81 0 138 -57.5t57 -139z" />
    <glyph glyph-name="uniF1B1" unicode="&#xf1b1;" 
d="M1 445q-1 7 -1 28v3q300 26 474 150q55 -25 111 3q59 -60 117.5 -98.5t129.5 -61.5q15 -38 48 -59q-40 -99 -111 -174q-54 36 -112.5 16.5t-82.5 -75.5q-168 1 -322 72t-251 196zM573 90q-179 -92 -352 -82q-69 58 -119 132t-76 155q113 -97 257 -151t290 -54zM821 107
q202 42 341 156q-46 -119 -136.5 -208.5t-200 -134t-235 -44.5t-238.5 51q144 20 274 94q42 -21 82 -16.5t72 33t41 69.5zM1057 442q97 7 143 15q0 -6 -0.5 -18t-0.5 -18q-63 -79 -153 -135.5t-191 -84.5q69 83 109 189q59 7 93 52zM1079 530q-8 62 -57 95q15 142 4 272
q71 -74 114.5 -165t55.5 -187q-52 -11 -117 -15zM411 688q-168 -106 -404 -125q26 163 130 290.5t254 183.5q9 -109 48 -199q-31 -32 -38.5 -71.5t10.5 -78.5zM647 790q108 134 145 252q77 -26 139 -67q22 -172 5 -331q-37 -6 -65 -28t-40 -55q-90 33 -187 130q19 50 3 99z
M519 871q-42 104 -43 191q114 26 232 2q-38 -107 -118 -208q-54 23 -71 15z" />
    <glyph glyph-name="uniF1B2" unicode="&#xf1b2;" 
d="M514 1075h172v-694h-172v694zM176 899l121 -121q-60 -59 -93 -137.5t-33 -165.5q0 -117 57.5 -215.5t156 -156t215.5 -57.5t215.5 57.5t156 156t57.5 215.5q0 58 -15.5 113.5t-43 103t-67.5 86.5l121 121q83 -83 129.5 -192.5t46.5 -231.5q0 -163 -80.5 -301
t-218.5 -218.5t-301 -80.5t-301 80.5t-218.5 218.5t-80.5 301q0 82 21.5 159.5t60.5 144t94 120.5z" />
    <glyph glyph-name="uniF1B3" unicode="&#xf1b3;" 
d="M600 1075q163 0 301 -80.5t218.5 -218.5t80.5 -301t-80.5 -301t-218.5 -218.5t-301 -80.5t-301 80.5t-218.5 218.5t-80.5 301t80.5 301t218.5 218.5t301 80.5zM600 945q-77 0 -148.5 -24t-129 -67.5t-101 -101t-67.5 -129t-24 -148.5q0 -96 37.5 -182.5t100.5 -149.5
t149.5 -100.5t182.5 -37.5t182.5 37.5t149.5 100.5t100.5 149.5t37.5 182.5t-37.5 182.5t-100.5 149.5t-149.5 100.5t-182.5 37.5zM830 760l111 -111l-348 -348l-110 -111l-112 111l-112 113l110 111l113 -113z" />
    <glyph glyph-name="uniF1B4" unicode="&#xf1b4;" 
d="M600 1075q163 0 301 -80.5t218.5 -218.5t80.5 -301t-80.5 -301t-218.5 -218.5t-301 -80.5t-301 80.5t-218.5 218.5t-80.5 301t80.5 301t218.5 218.5t301 80.5zM857 794l-389 -389l-126 126l-124 -124l126 -126l125 -125l124 124l389 389z" />
    <glyph glyph-name="uniF1B5" unicode="&#xf1b5;" 
d="M1004 976l196 -196l-611 -611l-195 -195l-196 196l-198 198l194 195l199 -199z" />
    <glyph glyph-name="uniF1B6" unicode="&#xf1b6;" 
d="M600 1058q122 0 233 -47.5t191.5 -128t128 -191.5t47.5 -233q0 -193 -111 -348t-287 -218l-148 392q56 17 92 65t36 109q0 37 -14.5 70.5t-38.5 58t-58 39t-71 14.5q-75 0 -128.5 -53.5t-53.5 -128.5q0 -61 36 -109t92 -65l-148 -391q-176 63 -287 217.5t-111 347.5
q0 122 47.5 233t128 191.5t191.5 128t233 47.5z" />
    <glyph glyph-name="uniF1B7" unicode="&#xf1b7;" 
d="M600 1075q163 0 301 -80.5t218.5 -218.5t80.5 -301t-80.5 -301t-218.5 -218.5t-301 -80.5t-301 80.5t-218.5 218.5t-80.5 301t80.5 301t218.5 218.5t301 80.5zM744 851h-10q-76 -4 -150 -77l-315 -316l52 -51l315 315q63 60 115 56q50 -7 86.5 -56.5t24.5 -93.5l-8 -18
t-7.5 -15.5t-10 -15t-9 -12t-11.5 -13t-11 -11.5l-13.5 -13.5t-12.5 -13.5q-45 -45 -147.5 -146.5t-163.5 -162.5q-22 -20 -38 -28t-33 -5t-36 20q-29 30 -25 58q3 26 29 52l288 288q41 41 56 28q1 -4 1.5 -7.5t0 -7.5t-1.5 -7t-3.5 -7t-4.5 -6.5t-5 -6t-5 -5t-5.5 -5
t-3.5 -4.5l-265 -265l51 -51l265 264q91 93 28 158q-72 61 -160 -26l-288 -288q-44 -44 -50 -96q-5 -64 48 -118q43 -42 95 -43q21 1 44 10t39.5 21t30.5 25l156.5 156.5t185.5 184.5q56 58 70 114q24 96 -55 178q-63 62 -133 63z" />
    <glyph glyph-name="uniF1B8" unicode="&#xf1b8;" 
d="M472 -36q-22 -22 -49 -40.5t-63 -33t-70 -15.5q-83 1 -152 69q-84 85 -77 188q10 82 81 153l460 460q28 28 56.5 46.5t61.5 29t68.5 2.5t67.5 -36q101 -105 -43 -253l-424 -422l-81 83l422 422q1 0 8 7.5t9.5 10t9 9.5t8.5 11.5t6 11.5t5 12.5t0.5 12.5t-2.5 14
q-14 12 -40 -4.5t-49 -39.5l-460 -459q-42 -43 -47 -83q-6 -46 41 -93q30 -28 57 -33t52.5 7.5t60.5 45.5q97 97 260.5 259.5t235.5 234.5l19 19l18.5 18.5t16 16.5t16.5 18t14 17.5t14 20t12 20t12.5 23.5t10.5 26q12 45 -10.5 98.5t-68.5 93t-98 46.5q-82 8 -184 -89
l-503 -503l-83 81l503 505q119 117 240 123t228 -101q127 -130 89 -284q-24 -89 -113 -182q-104 -101 -295.5 -293.5t-250.5 -250.5z" />
    <glyph glyph-name="uniF1B9" unicode="&#xf1b9;" 
d="M1157 614q-1 -63 -19 -122.5t-51 -109t-78 -86.5q-154 -118 -398 -122v-72q-2 -68 -39 -124.5t-95 -83.5q-40 -19 -88 -19q-55 1 -112 29v208q50 -35 90 -23q41 15 41 58v578h203v-360q71 1 135 15q96 23 149 70q71 67 71 164q0 67 -31 121.5t-85 88.5q-105 60 -250 61
q-153 -4 -252 -65q-54 -35 -84 -90t-30 -116q10 -127 57 -171l-129 -139q-57 57 -88 145q-31 93 -31 165q1 66 20.5 128t53.5 114t81 91q163 127 402 128q250 -4 403 -127q75 -64 114 -152t40 -182z" />
    <glyph glyph-name="uniF1BA" unicode="&#xf1ba;" 
d="M600 1075q163 0 301 -80.5t218.5 -218.5t80.5 -301t-80.5 -301t-218.5 -218.5t-301 -80.5t-301 80.5t-218.5 218.5t-80.5 301t80.5 301t218.5 218.5t301 80.5zM331 786v-622h182v622h-182zM687 786v-622h182v622h-182z" />
    <glyph glyph-name="uniF1BB" unicode="&#xf1bb;" 
d="M0 1075h500v-1200h-500v1200zM700 1075h500v-1200h-500v1200z" />
    <glyph glyph-name="uniF1BC" unicode="&#xf1bc;" 
d="M600 1075q163 0 301 -80.5t218.5 -218.5t80.5 -301t-80.5 -301t-218.5 -218.5t-301 -80.5t-301 80.5t-218.5 218.5t-80.5 301t80.5 301t218.5 218.5t301 80.5zM802 888q-33 0 -57 -24q-22 -23 -23 -53.5t19 -50.5l100 -100q21 -21 51.5 -19.5t53 24t23.5 53t-20 50.5
l-100 100q-19 19 -47 20zM637 756l-324 -325l200 -199l324 324zM261 394l-53 -264l264 53z" />
    <glyph glyph-name="uniF1BD" unicode="&#xf1bd;" 
d="M1169 884q33 -32 31 -80t-37.5 -83.5t-83.5 -37.5t-80 30l-158 158q-33 33 -31 81t37.5 83.5t83.5 37t81 -30.5zM165 353l512 511l315 -315l-512 -511zM0 -123l83 416l333 -332z" />
    <glyph glyph-name="uniF1BE" unicode="&#xf1be;" 
d="M720 803q27 0 51 -11q17 -8 30.5 -20.5t23 -27.5t14.5 -32.5t5 -35.5v-339q-4 -25 -21.5 -32.5t-33.5 3t-17 29.5v320q-4 13 -22 11t-19 -11v-734q-3 -21 -14.5 -33.5t-27 -14t-30.5 3.5t-25.5 17.5t-10.5 27.5v450q-3 13 -15 16t-22.5 -3t-10.5 -14q1 -109 1 -449
q-3 -26 -20.5 -38.5t-36.5 -10.5t-34.5 15.5t-16.5 32.5l-1 734q-5 12 -22 10.5t-17 -10.5v-320q-3 -19 -15 -28t-24 -7t-22.5 11.5t-10.5 23.5v339q1 38 15.5 69t43.5 47q20 11 49 11h256zM718 957q0 -49 -34.5 -84t-83.5 -35t-83.5 35t-34.5 84q0 32 15.5 59t43 43
t59.5 16q49 0 83.5 -34.5t34.5 -83.5z" />
    <glyph glyph-name="uniF1BF" unicode="&#xf1bf;" 
d="M600 1075q163 0 301 -80.5t218.5 -218.5t80.5 -301t-80.5 -301t-218.5 -218.5t-301 -80.5t-301 80.5t-218.5 218.5t-80.5 301t80.5 301t218.5 218.5t301 80.5zM384 837q-11 -1 -23 -11l-102 -102q-20 -18 -21 -55q-2 -60 50 -170q85 -161 273 -298q131 -85 234 -88
q35 0 55 21l102 101q12 12 9.5 29t-18.5 27l-148 87h-1q-24 15 -52 -7l-44 -45q-6 -5 -20 -2q-10 3 -19.5 6.5t-18 8.5t-18 11.5t-17 12.5t-16 14t-15 14t-15.5 14.5t-15 13.5q-78 72 -96 143q0 5 4 10l37 38q23 23 9 51l-82 156q-13 21 -32 20z" />
    <glyph glyph-name="uniF1C0" unicode="&#xf1c0;" 
d="M1183 77l-169 -168q-33 -34 -90 -34q-171 5 -388 146q-312 227 -453 494q-25 52 -41 91t-30 93.5t-12 97.5q1 61 35 91l169 169q27 22 50.5 17t40.5 -32l137 -258q10 -23 5.5 -45.5t-21.5 -39.5l-62 -62q-6 -9 -6 -18q30 -117 160 -237q10 -9 38 -36t43.5 -40.5t41 -33
t49.5 -30.5t50 -17q22 -6 32 3l73 74q20 15 43 19.5t45 -6.5h1l245 -145q27 -17 30.5 -45t-16.5 -48z" />
    <glyph glyph-name="uniF1C1" unicode="&#xf1c1;" 
d="M600 1075q163 0 301 -80.5t218.5 -218.5t80.5 -301t-80.5 -301t-218.5 -218.5t-301 -80.5t-301 80.5t-218.5 218.5t-80.5 301t80.5 301t218.5 218.5t301 80.5zM278 780v-610h644v610h-644zM357 703h486v-335h-486v335z" />
    <glyph glyph-name="uniF1C2" unicode="&#xf1c2;" 
d="M0 1044h1200v-1138h-1200v1138zM148 900v-624h904v624h-904z" />
    <glyph glyph-name="uniF1C3" unicode="&#xf1c3;" 
d="M911 980q133 -83 210.5 -218.5t78.5 -287.5q0 -102 -34 -195h-255v701zM1139 217q-70 -141 -200 -229.5t-284 -104.5q-77 -5 -157 8.5t-144 41.5v284h785zM0 474q2 169 91 310.5t235 217.5l228 -204l-532 -478q-22 79 -22 154zM290 -33q-84 53 -147.5 127.5t-99.5 160.5
l247 223v-511zM847 618l-457 412q112 38 210 38q130 0 247 -54v-396z" />
    <glyph glyph-name="uniF1C4" unicode="&#xf1c4;" 
d="M0 976h1200v-1002h-1200v1002zM92 882v-814h1016v814h-1016zM301 765q41 0 70.5 -29.5t29.5 -72.5q0 -41 -29.5 -70.5t-70.5 -29.5q-43 0 -72 29.5t-29 70.5q0 43 29 72.5t72 29.5zM733 715l267 -276v-275h-800v69l180 234l123 -102z" />
    <glyph glyph-name="uniF1C5" unicode="&#xf1c5;" 
d="M321 -89l149 480h-215l-135 -120h-120l96 204l-96 204h120l135 -120h215l-149 480h120l269 -480h310q7 0 19.5 -0.5t43.5 -5t54.5 -12.5t43 -25t19.5 -41t-18.5 -41t-45 -25t-53 -12.5t-44.5 -4.5l-19 -1h-310l-269 -480h-120z" />
    <glyph glyph-name="uniF1C6" unicode="&#xf1c6;" 
d="M600 -125q-163 0 -301 80.5t-218.5 218.5t-80.5 301t80.5 301t218.5 218.5t301 80.5t301 -80.5t218.5 -218.5t80.5 -301t-80.5 -301t-218.5 -218.5t-301 -80.5zM450 775v-600l450 300z" />
    <glyph glyph-name="uniF1C7" unicode="&#xf1c7;" 
d="M600 1075q163 0 301 -80.5t218.5 -218.5t80.5 -301t-80.5 -301t-218.5 -218.5t-301 -80.5t-301 80.5t-218.5 218.5t-80.5 301t80.5 301t218.5 218.5t301 80.5zM600 936q-94 0 -179 -36.5t-147 -98.5t-98.5 -147t-36.5 -179t36.5 -179t98.5 -147t147 -98.5t179 -36.5
t179 36.5t147 98.5t98.5 147t36.5 179t-36.5 179t-98.5 147t-147 98.5t-179 36.5zM450 775l450 -300l-450 -300v600z" />
    <glyph glyph-name="uniF1C8" unicode="&#xf1c8;" 
d="M100 1075l1000 -600l-1000 -600v1200z" />
    <glyph glyph-name="uniF1C9" unicode="&#xf1c9;" 
d="M0 715q1 1 4.5 5.5t7.5 9.5v-46q-4 5 -7.5 9.5t-4.5 5.5v16zM1165 479q-38 -11 -88 12q-43 20 -76 27q-11 4 -17 1.5t-8 -7.5t-3 -18q-10 -87 -17 -113q-19 -68 -82 -90q-10 -3 -12.5 -9.5t0.5 -16.5q21 -89 25 -126q3 -24 -2 -30t-30 -10q-31 -5 -90 -7q-20 -1 -21 24
q-2 75 -11 141q-3 21 -9.5 24.5t-30.5 0.5q32 -157 34 -166q-18 -7 -26.5 -9.5t-24.5 -7.5t-27 -6t-25.5 -1t-28.5 3q-20 5 -22 24q-6 67 -11 123q0 1 -1 22h-40q14 -80 16 -91q1 -4 1.5 -9.5t1 -12t1.5 -9.5q3 -28 -1 -34t-30 -11q-34 -7 -65 -2q-38 6 -40 50q-2 65 -4 112
l-4 18q-3 0 -5 -1q0 -40 -1 -42q0 -10 -1 -44.5t-1 -53.5q0 -15 -16 -19q-59 -17 -139 5q-23 6 -20 31q4 29 13 79q0 2 8 35q16 62 -13 111q-48 79 -41 146q3 32 9 51q5 16 -11 24q-67 35 -86 91q-16 48 5 95t71 75q-16 -45 -17 -48q-12 -40 10.5 -78t64.5 -47q7 -1 15 2
q10 3 15 9q43 44 97 66t134 40q13 3 33 8.5t33.5 9t32 7t33.5 5.5q109 10 178.5 -22.5t120.5 -119.5q3 -4 45 -85q19 4 29.5 7.5t25.5 10.5t25.5 17.5t18.5 25.5q19 35 51 40.5t57 -20.5q32 -31 8 -68q-2 -3 -32 -44q26 -23 29 -26q6 -5 12 -15q16 -25 10.5 -37t-34.5 -17
q21 17 2 37q-3 3 -41 45q24 32 26 34q2 3 25 33q-7 13 -8 13q-20 32 -44 32t-45 -31l-3 -6t-4 -6.5t-4 -4.5l-7.5 -7.5l-7.5 -7.5t-7 -6.5t-8 -6.5t-9 -5q-64 -32 -141 -25q-20 1 -72 -5q-4 0 -8.5 -4.5t-5.5 -7.5q0 -4 3 -33q104 9 110 9q36 2 67 2t65.5 -9t62.5 -28
q6 -4 15 -6t21.5 -3.5t18.5 -2.5zM920 521q4 -66 4 -69q-2 -47 -32 -71t-76 -17q-90 14 -113 99q-24 91 3 183q7 24 26 49q20 26 47 29.5t53 -16.5q18 -14 36 -42q6 -10 14.5 -29t11.5 -25q6 -11 13 -12q4 -1 42 -1q-9 23 -9 24q-32 70 -88 128q-38 39 -79.5 35.5
t-73.5 -48.5q-38 -54 -49 -138q-18 -125 38 -207q47 -69 131 -79q80 -10 118 63q22 40 21 105q0 15 -0.5 20t-5 10t-10.5 6t-22 3zM857 103q2 4 6 10t5 8.5t1 4.5q-2 3 -4.5 6.5t-6.5 7t-5 5.5q-1 -2 -4.5 -5.5t-5 -6t-1.5 -4.5q1 -4 3 -7l6 -9t6 -10zM56 707q8 -39 14 -65
q-27 28 -19 64q3 0 5 1zM220 854q-5 -18 -15 -55q-9 38 15 55z" />
    <glyph glyph-name="uniF1CA" unicode="&#xf1ca;" 
d="M0 1075h1200v-1200h-783v263h549v652h-735v-915h-231v1200zM426 333v282h354v-282h-354z" />
    <glyph glyph-name="uniF1CB" unicode="&#xf1cb;" 
d="M600 1075q163 0 301 -80.5t218.5 -218.5t80.5 -301t-80.5 -301t-218.5 -218.5t-301 -80.5t-301 80.5t-218.5 218.5t-80.5 301t80.5 301t218.5 218.5t301 80.5zM504 813v-242h-242v-192h242v-242h192v242h242v192h-242v242h-192z" />
    <glyph glyph-name="uniF1CC" unicode="&#xf1cc;" 
d="M430 1075h340v-430h430v-340h-430v-430h-340v430h-430v340h430v430z" />
    <glyph glyph-name="uniF1CD" unicode="&#xf1cd;" 
d="M600 1057q122 0 233 -47.5t191.5 -127.5t128 -191.5t47.5 -233.5q0 -188 -106 -340t-276 -218v53q74 31 135 82.5t105 116.5t68.5 144t24.5 162q0 112 -43.5 214.5t-117.5 176t-176 117.5t-214 44q-90 0 -174 -28t-151.5 -79t-118.5 -119t-79 -152t-28 -174
q0 -167 92 -304t241 -201v-53q-170 66 -276 218t-106 340q0 122 47.5 233.5t128 191.5t191.5 127.5t233 47.5zM600 938q111 0 205.5 -54.5t149 -149t54.5 -205.5q0 -75 -26 -144t-73 -123t-109 -89v44q78 50 124.5 132.5t46.5 179.5q0 101 -50 186.5t-135.5 135.5t-186.5 50
t-186.5 -50t-135.5 -135.5t-50 -186.5q0 -97 46 -179.5t124 -132.5v-44q-94 54 -150.5 148.5t-56.5 207.5q0 111 54.5 205.5t149 149t205.5 54.5zM600 806q101 0 173 -71.5t72 -173.5q0 -103 -75 -175v57q37 53 37 118q0 86 -60.5 146.5t-146.5 60.5q-56 0 -104 -27.5
t-75.5 -75.5t-27.5 -104q0 -65 37 -118v-57q-75 72 -75 175q0 102 72 173.5t173 71.5zM600 678q48 0 82.5 -34t34.5 -83q0 -32 -15.5 -58.5t-42.5 -42.5t-59 -16t-59 16t-42.5 42.5t-15.5 58.5q0 49 34.5 83t82.5 34zM600 414q29 0 52 -3t37.5 -7.5t25 -10t15.5 -11t8 -10
t4 -7.5v-2q1 -151 -12 -229q-6 -35 -22 -95.5t-30 -103.5l-13 -42h-130q-52 161 -65 240q-6 35 -9 92.5t-3 97.5v40q0 2 1 5.5t9 12t21.5 15.5t42.5 12.5t68 5.5z" />
    <glyph glyph-name="uniF1CE" unicode="&#xf1ce;" 
d="M367 1001h466v-181h47l280 -119h-1120l280 119h47v181zM0 632h1200v-365h-186l66 -318h-960l66 318h-186v365zM291 494l-93 -458h804l-94 458h-617z" />
    <glyph glyph-name="uniF1CF" unicode="&#xf1cf;" 
d="M472 1075q70 0 120 -50t50 -120t-49 -120h316v-313q50 50 120.5 50t120.5 -50t50 -120.5t-50 -120.5t-120.5 -50t-120.5 50v-356h-328q64 51 64 133q0 46 -23 85.5t-62 62t-86 22.5q-70 0 -120 -49.5t-50 -120.5q0 -82 64 -133h-368v403q51 -59 129 -59q70 0 120 50
t50 121q0 46 -22.5 85t-62 62t-85.5 23q-78 0 -129 -59v284h350q-49 50 -49 120q0 34 13.5 65.5t36.5 54.5t54.5 36.5t66.5 13.5z" />
    <glyph glyph-name="uniF1D0" unicode="&#xf1d0;" 
d="M0 1075h545v-545h-545v545zM655 1075h545v-545h-545v545zM109 966v-328h328v328h-328zM763 966v-328h328v328h-328zM218 855h110v-108h-110v108zM872 855h108v-108h-108v108zM0 420h545v-545h-545v545zM655 420h325v-108h111v108h109v-327h-328v109h-109v-327h-108v545z
M109 312v-328h328v328h-328zM218 203h110v-110h-110v110zM872 -16h108v-109h-108v109zM1091 -16h109v-109h-109v109z" />
    <glyph glyph-name="uniF1D1" unicode="&#xf1d1;" 
d="M600 1075q163 0 301 -80.5t218.5 -218.5t80.5 -301t-80.5 -301t-218.5 -218.5t-301 -80.5t-301 80.5t-218.5 218.5t-80.5 301t80.5 301t218.5 218.5t301 80.5zM589 925q-36 0 -84.5 -20t-85.5 -51.5t-39 -61.5q-2 -28 1 -44.5t5.5 -19t7.5 -5.5h68q13 29 31.5 42.5
t53.5 12.5q39 0 68.5 -39t12.5 -79q-12 -29 -35.5 -67.5t-36.5 -66.5q-23 -49 -25 -107t24 -118l84 -2q-6 31 1.5 62.5t25 60.5t35 53t40 51t32.5 42q21 33 31.5 56t13.5 41t3 49q0 84 -60 145q-63 65 -172 66zM593.5 229q-42.5 0 -72.5 -29.5t-30 -72t30 -72.5t72.5 -30
t72 30t29.5 72.5t-29.5 72t-72 29.5z" />
    <glyph glyph-name="uniF1D2" unicode="&#xf1d2;" 
d="M586 1075q145 0 229 -87q79 -82 80 -195q0 -58 -11.5 -94.5t-53.5 -99.5q-9 -15 -25 -35t-31 -38t-33 -41.5t-32 -44t-28 -46.5t-21 -49.5t-10.5 -51.5t2.5 -52l-112 2q-24 48 -30 104t2.5 105t28.5 91q17 37 49 88.5t48 90.5q13 39 0 74t-44.5 59.5t-64.5 24.5
q-47 0 -71.5 -18t-41.5 -56h-91q-7 4 -10.5 7.5t-7.5 25.5t-1 60q3 39 52.5 81.5t114 68.5t113.5 26zM591.5 147q56.5 0 96 -39.5t39.5 -96.5q0 -37 -18 -68t-49.5 -49.5t-68.5 -18.5q-56 0 -96 40t-40 96.5t40 96t96.5 39.5z" />
    <glyph glyph-name="uniF1D3" unicode="&#xf1d3;" 
d="M600 1075q163 0 301 -80.5t218.5 -218.5t80.5 -301t-80.5 -301t-218.5 -218.5t-301 -80.5t-301 80.5t-218.5 218.5t-80.5 301t80.5 301t218.5 218.5t301 80.5zM554 793q-32 -3 -54 -5.5t-55.5 -9.5t-56 -18t-48.5 -30.5t-41.5 -45.5t-26 -65.5t-10.5 -88.5v-295h267v316
h-89q-1 24 6 43.5t19 31.5t32.5 21.5t38 15t44.5 11.5zM912 793q-32 -3 -54 -5.5t-55.5 -9.5t-56 -18t-48.5 -30.5t-41.5 -45.5t-26 -65.5t-10.5 -88.5v-295h268v316h-89q-2 30 8 52t32 35.5t43.5 20.5t55.5 15z" />
    <glyph glyph-name="uniF1D4" unicode="&#xf1d4;" 
d="M600 -125q-163 0 -301 80.5t-218.5 218.5t-80.5 301t80.5 301t218.5 218.5t301 80.5t301 -80.5t218.5 -218.5t80.5 -301t-80.5 -301t-218.5 -218.5t-301 -80.5zM646 157q32 3 54 5.5t55.5 9.5t56 18t48.5 30.5t41.5 45.5t26 65.5t10.5 88.5v295h-267v-316h89
q2 -30 -8 -52t-32.5 -35.5t-44 -20.5t-55.5 -15zM288 157q32 3 54 5.5t55.5 9.5t56 18t48.5 30.5t41.5 45.5t26 65.5t10.5 88.5v295h-268v-316h89q2 -30 -8 -52t-32 -35.5t-43.5 -20.5t-55.5 -15z" />
    <glyph glyph-name="uniF1D5" unicode="&#xf1d5;" 
d="M682 -20l-46 211q33 7 56.5 13.5t52 16.5t48 21t39 27.5t30.5 36t17 46t4 57.5h-158v561h475v-524q0 -87 -18.5 -156.5t-46 -115.5t-73.5 -81t-86.5 -54t-99.5 -32.5t-98 -18t-96 -8.5zM46 -20l-46 211q47 11 79 20t68 26.5t57 39t33.5 55.5t9.5 77h-157v561h474v-524
q0 -87 -18.5 -156.5t-46 -115.5t-73.5 -81t-86 -54t-99.5 -32.5t-98.5 -18t-96 -8.5z" />
    <glyph glyph-name="uniF1D6" unicode="&#xf1d6;" 
d="M518 970l46 -211q-47 -11 -78.5 -20t-68 -26.5t-57 -39t-33.5 -55.5t-10 -77h158v-561h-475v524q0 87 18.5 156.5t46 115.5t73.5 81t86.5 54t99.5 32.5t98 18t96 8.5zM1154 970l46 -211q-47 -11 -79 -20t-68 -26.5t-57 -39t-33.5 -55.5t-9.5 -77h157v-561h-474v524
q0 68 11 125.5t29 100t47.5 77t58 58t69.5 42t74 28.5t78.5 17.5t76 11t74.5 6.5z" />
    <glyph glyph-name="uniF1D7" unicode="&#xf1d7;" 
d="M936 1033l264 -264l-264 -264v194h-172q-19 0 -27 -4t-33 -30q-48 -48 -175 -230q-25 -36 -56 -81.5t-48 -70t-36.5 -51t-36.5 -44.5q-35 -39 -82 -60t-97 -21h-171h-2v148h2h171q33 0 40 3t29 28q14 16 33 42t62 89.5t71 102.5q135 192 191 249q77 78 165 78h172v186z
M0 847h2h171q50 0 97 -21t82 -59q28 -31 73 -96q-3 -3 -8.5 -11t-9.5 -13q-25 -36 -60 -85q-3 -5 -7 -11t-7 -9q-70 103 -91 126q-22 25 -29 28t-40 3h-171h-2v148zM936 445l264 -264l-264 -264v190h-172q-88 0 -165 78q-35 36 -83 99q52 78 73 108q3 5 8.5 12t6.5 10
q68 -92 100 -125q25 -25 33 -29.5t27 -4.5h172v190z" />
    <glyph glyph-name="uniF1D8" unicode="&#xf1d8;" 
d="M600 -125q-163 0 -301 80.5t-218.5 218.5t-80.5 301t80.5 301t218.5 218.5t301 80.5t301 -80.5t218.5 -218.5t80.5 -301t-80.5 -301t-218.5 -218.5t-301 -80.5zM600 775q-124 0 -212 -88t-88 -212t88 -212t212 -88t212 88t88 212t-88 212t-212 88z" />
    <glyph glyph-name="uniF1D9" unicode="&#xf1d9;" 
d="M799 195q5 -7 6 -13t-3.5 -12.5t-6 -7.5t-9.5 -8q-72 -54 -189 -54q-31 0 -63 5t-66 17.5t-54 31.5q-12 9 -15.5 20.5t6.5 22.5q5 4 10 5t11 -2.5t8.5 -5.5t9.5 -8q8 -5 15.5 -9.5t14 -7.5t15 -6t14 -5t15 -4t14.5 -3t16 -2t15.5 -1.5t17 -2t16.5 -1.5q50 2 85.5 11.5
t75.5 31.5q26 23 41 8zM1018 981q31 0 57 -15t41 -41t15 -56q0 -47 -33 -80t-80 -33q-30 0 -56 15t-41.5 41t-15.5 57l-197 46l-79 -223q100 -4 187 -30.5t155 -68.5q40 34 90 34q29 0 54.5 -11t44.5 -30t29.5 -44t10.5 -53q0 -36 -17.5 -67t-48.5 -50q4 -22 4 -42
q0 -74 -42 -140t-116 -115.5t-172 -77.5t-209 -28q-113 0 -210.5 28t-171 77.5t-116 115.5t-42.5 140q0 12 1 22q2 13 3 21q-29 19 -46 49.5t-17 66.5q0 28 10.5 53t29.5 44t43.5 30t53.5 11q53 0 91 -34q71 44 161.5 70.5t194.5 28.5l97 275l232 -57q13 32 41.5 51.5
t63.5 19.5zM599 649q-102 0 -193 -25t-157.5 -68t-106 -101.5t-39.5 -124t39.5 -123.5t106 -101t157.5 -68t193 -25t192.5 25t158 68t106.5 101t39 123.5t-39 124t-106.5 101.5t-158 68t-192.5 25zM781.5 480q35.5 0 60.5 -24.5t25 -59.5t-25 -60t-60 -25q-23 0 -43 11.5
t-31 31t-11 42.5q0 35 24.5 59.5t60 24.5zM428 479q23 0 43 -11.5t31 -31t11 -42.5q0 -35 -24.5 -59.5t-60.5 -24.5q-23 0 -42.5 11t-31 30.5t-11.5 42.5q0 35 25 60t60 25zM1132 370q-1 0 -1 -1q0 1 1 1z" />
    <glyph glyph-name="uniF1DA" unicode="&#xf1da;" 
d="M364 67l-104 -116h-260l259 294zM687 -49h-223l-66 113l134 150zM383 89l-362 616h222l169 -287l514 581h274z" />
    <glyph glyph-name="uniF1DB" unicode="&#xf1db;" 
d="M600 1075q122 0 231.5 -46.5t192.5 -129.5l176 176v-483h-178h-305l193 193q-61 60 -141 94t-169 34q-149 0 -266 -90t-156 -231h-167q28 137 111.5 247t209 173t268.5 63zM0 358h483l-193 -193q61 -60 141 -94t169 -34q149 0 266 90t156 231h167q-28 -137 -111.5 -247
t-209 -173t-268.5 -63q-122 0 -231.5 46.5t-192.5 129.5l-176 -176v483z" />
    <glyph glyph-name="uniF1DC" unicode="&#xf1dc;" 
d="M600 1075q163 0 301 -80.5t218.5 -218.5t80.5 -301t-80.5 -301t-218.5 -218.5t-301 -80.5t-301 80.5t-218.5 218.5t-80.5 301t80.5 301t218.5 218.5t301 80.5zM600 945q-77 0 -148.5 -24t-129 -67.5t-101 -101t-67.5 -129t-24 -148.5q0 -96 37.5 -182.5t100.5 -149.5
t149.5 -100.5t182.5 -37.5t182.5 37.5t149.5 100.5t100.5 149.5t37.5 182.5t-37.5 182.5t-100.5 149.5t-149.5 100.5t-182.5 37.5zM435 770l165 -165l165 165l130 -130l-165 -165l165 -165l-130 -130l-165 165l-165 -165l-130 130l165 165l-165 165z" />
    <glyph glyph-name="uniF1DD" unicode="&#xf1dd;" 
d="M600 1075q163 0 301 -80.5t218.5 -218.5t80.5 -301t-80.5 -301t-218.5 -218.5t-301 -80.5t-301 80.5t-218.5 218.5t-80.5 301t80.5 301t218.5 218.5t301 80.5zM411 812l-149 -148l189 -189l-189 -189l149 -148l189 188l189 -188l149 148l-189 189l189 189l-149 148
l-189 -188z" />
    <glyph glyph-name="uniF1DE" unicode="&#xf1de;" 
d="M0 810l265 265l335 -335l335 335l265 -265l-335 -335l335 -335l-265 -265l-335 335l-335 -335l-265 265l335 335z" />
    <glyph glyph-name="uniF1DF" unicode="&#xf1df;" 
d="M600 1075q163 0 301 -80.5t218.5 -218.5t80.5 -301t-80.5 -301t-218.5 -218.5t-301 -80.5t-301 80.5t-218.5 218.5t-80.5 301t80.5 301t218.5 218.5t301 80.5zM600 823q-71 0 -135 -28t-110.5 -74.5t-74.5 -110.5t-28 -135q0 -94 46.5 -174.5t127 -127t174.5 -46.5
q95 0 175 47.5t126 127.5l-122 70q-27 -47 -75 -75t-104 -28q-86 0 -146 60t-60 146t60 146t146 60q72 0 129 -45l-91 -65l310 -103v323l-101 -71q-32 32 -70.5 54.5t-84 35.5t-92.5 13z" />
    <glyph glyph-name="uniF1E0" unicode="&#xf1e0;" 
d="M600 1075q123 0 233 -47t193 -131l174 124v-559l-535 179l158 112q-98 78 -223 78q-97 0 -179 -47.5t-129.5 -129.5t-47.5 -179t47.5 -179t129.5 -129.5t179 -47.5q65 0 124.5 22.5t106.5 62.5t78 93l211 -121q-52 -90 -130.5 -157.5t-179.5 -105.5t-210 -38
q-163 0 -301 80.5t-218.5 218.5t-80.5 301t80.5 301t218.5 218.5t301 80.5z" />
    <glyph glyph-name="uniF1E1" unicode="&#xf1e1;" 
d="M670 1075h530v-530l-177 178l-242 -242l-175 175l242 242zM419 469l175 -175l-242 -242l178 -177h-530v530l177 -178z" />
    <glyph glyph-name="uniF1E2" unicode="&#xf1e2;" 
d="M304 779v-203h592v203l304 -304l-304 -304v203h-592v-203l-304 304z" />
    <glyph glyph-name="uniF1E3" unicode="&#xf1e3;" 
d="M1025 1075l175 -175l-241 -241l177 -178h-530v530l178 -177zM64 469h530v-530l-178 177l-241 -241l-175 175l241 241z" />
    <glyph glyph-name="uniF1E4" unicode="&#xf1e4;" 
d="M904 771h-203v-315v-37v-240h203l-304 -304l-304 304h203v240v37v315h-203l304 304z" />
    <glyph glyph-name="uniF1E5" unicode="&#xf1e5;" 
d="M809 941h134h257v-257v-268v-257h-257h-525v-150l-418 279l418 278v-150h525v268h-134v257z" />
    <glyph glyph-name="uniF1E6" unicode="&#xf1e6;" 
d="M300 850l300 -300h-225v-225h150l150 -150h-450v375h-225zM525 775h450v-375h225l-300 -300l-300 300h225v225h-150z" />
    <glyph glyph-name="uniF1E7" unicode="&#xf1e7;" 
d="M600 -125q-163 0 -301 80.5t-218.5 218.5t-80.5 301t80.5 301t218.5 218.5t301 80.5t301 -80.5t218.5 -218.5t80.5 -301t-80.5 -301t-218.5 -218.5t-301 -80.5zM525 700l-300 -225l300 -225v450zM900 700l-300 -225l300 -225v450z" />
    <glyph glyph-name="uniF1E8" unicode="&#xf1e8;" 
d="M1200 -125h-502l-11 345h-174l-11 -345h-502l242 1200h299l-9 -277h136l-9 277h299zM684 324h-168l14 407h140l14 -407v0z" />
    <glyph glyph-name="uniF1E9" unicode="&#xf1e9;" 
d="M1200 -125h-240q0 131 -34.5 255t-96.5 229.5t-150.5 194t-194 150.5t-229.5 96.5t-255 34.5v240q196 0 379 -60.5t330.5 -171.5t258.5 -258.5t171.5 -330.5t60.5 -379zM720 -125h-240q0 98 -38 186.5t-102.5 153t-153 102.5t-186.5 38v240q146 0 279.5 -57t230 -153.5
t153.5 -230t57 -279.5zM240 -125h-240v240q99 0 169.5 -70.5t70.5 -169.5z" />
    <glyph glyph-name="uniF1EA" unicode="&#xf1ea;" 
d="M517 997q33 0 63 -13t51.5 -35t34.5 -52t13 -63q0 -71 -54 -120h1q32 -23 50.5 -59t34 -92t23.5 -76q25 -2 67.5 -4t75 -4t74 -6.5t75.5 -14t67.5 -25t60.5 -41t46 -59.5h-734q-51 7 -86 27q-20 -43 -60 -69.5t-89 -26.5q-38 0 -72 17t-57 46l-13 18l-24 -2q-27 0 -46 19
t-19 46t19 46t46 19q8 0 10.5 2t5.5 10q18 46 59 74.5t91 28.5q58 0 103 -37l92 -65q18 -15 48 -17.5t51 1.5t58 13q-2 13 -5.5 37t-5.5 35t-8.5 27t-17.5 28t-28 23q-14 10 -39.5 28t-38 27.5t-31 26.5t-28 32.5t-17 38t-9.5 48.5q0 68 47.5 115.5t114.5 47.5zM517 916
q-22 0 -41 -11t-29.5 -30t-10.5 -41q0 -33 23.5 -57t57 -24t57.5 24t24 57.5t-24 57.5t-57 24zM231.5 507q-33.5 0 -57.5 -24t-24 -57.5t24 -57t57 -23.5q22 0 41 10.5t29.5 29.5t10.5 41q0 33 -23.5 57t-57 24zM664 473q-19 0 -32.5 -13.5t-13.5 -32.5t13.5 -32.5
t32.5 -13.5t32.5 13.5t13.5 32.5t-13.5 32.5t-32.5 13.5zM668 251h152l111 -298q-29 3 -54.5 13t-44.5 22.5t-37.5 33t-31 39t-27 45.5t-23.5 47t-22.5 49.5t-22.5 48.5zM180 161h158v-72h-158v72zM464 161h141l33 -72h-174v72zM960 161h179v-72h-158z" />
    <glyph glyph-name="uniF1EB" unicode="&#xf1eb;" 
d="M600 1075q163 0 301 -80.5t218.5 -218.5t80.5 -301t-80.5 -301t-218.5 -218.5t-301 -80.5t-301 80.5t-218.5 218.5t-80.5 301t80.5 301t218.5 218.5t301 80.5zM250 765v-462h254v-67h-62v-51h316v51h-62v67h254v462h-700zM336 677h528v-287h-528v287z" />
    <glyph glyph-name="uniF1EC" unicode="&#xf1ec;" 
d="M0 971h1200v-792h-436v-114h106v-86h-540v86h106v114h-436v792zM148 822v-493h904v493h-904z" />
    <glyph glyph-name="uniF1ED" unicode="&#xf1ed;" 
d="M510 1075h180v-156q134 -27 230.5 -123.5t123.5 -230.5h156v-180h-156q-27 -134 -123.5 -230.5t-230.5 -123.5v-156h-180v156q-134 27 -230.5 123.5t-123.5 230.5h-156v180h156q27 134 123.5 230.5t230.5 123.5v156zM510 798q-85 -23 -147.5 -85.5t-85.5 -147.5h175v-180
h-175q23 -85 85.5 -147.5t147.5 -85.5v175h180v-175q85 23 147.5 85.5t85.5 147.5h-175v180h175q-23 85 -85.5 147.5t-147.5 85.5v-175h-180v175z" />
    <glyph glyph-name="uniF1EE" unicode="&#xf1ee;" 
d="M600 1075q163 0 301 -80.5t218.5 -218.5t80.5 -301t-80.5 -301t-218.5 -218.5t-301 -80.5t-301 80.5t-218.5 218.5t-80.5 301t80.5 301t218.5 218.5t301 80.5zM641.5 815q-120.5 0 -206 -85t-85.5 -206q0 -84 45 -155v0l-127 -127l108 -107l131 131v1q62 -33 134 -33
q121 0 206 85t85 205.5t-85 205.5t-205.5 85zM641 686q44 0 81 -21.5t59 -59t22 -81.5q0 -67 -47.5 -114t-114.5 -47t-114 47t-47 114t47 114.5t114 47.5z" />
    <glyph glyph-name="uniF1EF" unicode="&#xf1ef;" 
d="M672.5 1075q104.5 0 199.5 -40.5t163.5 -109.5t109.5 -164t41 -199t-41 -199t-109.5 -164t-163.5 -109.5t-199 -40.5q-127 0 -238 58v-1l-231 -231l-190 190l224 223h1q-79 125 -79 274q0 104 40.5 199t109 164t163.5 109.5t199.5 40.5zM673 847q-78 0 -143.5 -38
t-103.5 -104t-38 -143q0 -118 83.5 -201.5t201.5 -83.5t201.5 83.5t83.5 201.5t-83.5 201.5t-201.5 83.5z" />
    <glyph glyph-name="uniF1F0" unicode="&#xf1f0;" 
d="M755 1040l445 -445l-445 -446v321q-255 0 -358 -17q-178 -29 -267 -139q-102 -126 -130 -404q0 135 18 248t45.5 194t74 145t88.5 104.5t105 69.5t108 43t113.5 22t104.5 9t98 1v294z" />
    <glyph glyph-name="uniF1F1" unicode="&#xf1f1;" 
d="M0 1075h594v-197h-397v-806h806v221l197 209v-627h-1200v1200zM858 1075l342 -342l-342 -342v247q-73 0 -110 -1t-95.5 -4.5t-88.5 -11.5t-73.5 -22.5t-66.5 -36t-51.5 -53.5t-44 -75t-29.5 -99.5t-21 -127.5q0 104 14 190.5t35 148.5t56.5 111.5t68 80.5t81 53.5
t83 33.5t87 16.5t80.5 6.5t75 1v226z" />
    </font>
</defs>
</svg>
